  0
SECTION
  2
HEADER
  9
$ACADVER
  1
AC1015
  9
$ACADMAINTVER
 70
     6
  9
$DWGCODEPAGE
  3
ANSI_1252
  9
$INSBASE
 10
0.0
 20
0.0
 30
0.0
  9
$EXTMIN
 10
0.0
 20
0.0
 30
0.0
  9
$EXTMAX
 10
297.0000000000001
 20
210.0000000000001
 30
0.0
  9
$LIMMIN
 10
0.0
 20
0.0
  9
$LIMMAX
 10
12.0
 20
9.0
  9
$ORTHOMODE
 70
     0
  9
$REGENMODE
 70
     1
  9
$FILLMODE
 70
     1
  9
$QTEXTMODE
 70
     0
  9
$MIRRTEXT
 70
     1
  9
$LTSCALE
 40
1.0
  9
$ATTMODE
 70
     1
  9
$TEXTSIZE
 40
0.2
  9
$TRACEWID
 40
0.05
  9
$TEXTSTYLE
  7
Standard
  9
$CLAYER
  8
0
  9
$CELTYPE
  6
ByLayer
  9
$CECOLOR
 62
   256
  9
$CELTSCALE
 40
1.0
  9
$DISPSILH
 70
     0
  9
$DIMSCALE
 40
1.0
  9
$DIMASZ
 40
0.18
  9
$DIMEXO
 40
0.0625
  9
$DIMDLI
 40
0.38
  9
$DIMRND
 40
0.0
  9
$DIMDLE
 40
0.0
  9
$DIMEXE
 40
0.18
  9
$DIMTP
 40
0.0
  9
$DIMTM
 40
0.0
  9
$DIMTXT
 40
0.18
  9
$DIMCEN
 40
0.09
  9
$DIMTSZ
 40
0.0
  9
$DIMTOL
 70
     0
  9
$DIMLIM
 70
     0
  9
$DIMTIH
 70
     1
  9
$DIMTOH
 70
     1
  9
$DIMSE1
 70
     0
  9
$DIMSE2
 70
     0
  9
$DIMTAD
 70
     0
  9
$DIMZIN
 70
     0
  9
$DIMBLK
  1

  9
$DIMASO
 70
     1
  9
$DIMSHO
 70
     1
  9
$DIMPOST
  1

  9
$DIMAPOST
  1

  9
$DIMALT
 70
     0
  9
$DIMALTD
 70
     2
  9
$DIMALTF
 40
25.4
  9
$DIMLFAC
 40
1.0
  9
$DIMTOFL
 70
     0
  9
$DIMTVP
 40
0.0
  9
$DIMTIX
 70
     0
  9
$DIMSOXD
 70
     0
  9
$DIMSAH
 70
     0
  9
$DIMBLK1
  1

  9
$DIMBLK2
  1

  9
$DIMSTYLE
  2
Standard
  9
$DIMCLRD
 70
     0
  9
$DIMCLRE
 70
     0
  9
$DIMCLRT
 70
     0
  9
$DIMTFAC
 40
1.0
  9
$DIMGAP
 40
0.09
  9
$DIMJUST
 70
     0
  9
$DIMSD1
 70
     0
  9
$DIMSD2
 70
     0
  9
$DIMTOLJ
 70
     1
  9
$DIMTZIN
 70
     0
  9
$DIMALTZ
 70
     0
  9
$DIMALTTZ
 70
     0
  9
$DIMUPT
 70
     0
  9
$DIMDEC
 70
     4
  9
$DIMTDEC
 70
     4
  9
$DIMALTU
 70
     2
  9
$DIMALTTD
 70
     2
  9
$DIMTXSTY
  7
Standard
  9
$DIMAUNIT
 70
     0
  9
$DIMADEC
 70
     0
  9
$DIMALTRND
 40
0.0
  9
$DIMAZIN
 70
     0
  9
$DIMDSEP
 70
    46
  9
$DIMATFIT
 70
     3
  9
$DIMFRAC
 70
     0
  9
$DIMLDRBLK
  1

  9
$DIMLUNIT
 70
     2
  9
$DIMLWD
 70
    -2
  9
$DIMLWE
 70
    -2
  9
$DIMTMOVE
 70
     0
  9
$LUNITS
 70
     2
  9
$LUPREC
 70
     4
  9
$SKETCHINC
 40
0.1
  9
$FILLETRAD
 40
0.5
  9
$AUNITS
 70
     0
  9
$AUPREC
 70
     0
  9
$MENU
  1
.
  9
$ELEVATION
 40
0.0
  9
$PELEVATION
 40
0.0
  9
$THICKNESS
 40
0.0
  9
$LIMCHECK
 70
     0
  9
$CHAMFERA
 40
0.5
  9
$CHAMFERB
 40
0.5
  9
$CHAMFERC
 40
1.0
  9
$CHAMFERD
 40
0.0
  9
$SKPOLY
 70
     0
  9
$TDCREATE
 40
2456997.611426389
  9
$TDUCREATE
 40
2456997.569759722
  9
$TDUPDATE
 40
2456997.611427292
  9
$TDUUPDATE
 40
2456997.569760625
  9
$TDINDWG
 40
0.0000000116
  9
$TDUSRTIMER
 40
0.0000000116
  9
$USRTIMER
 70
     1
  9
$ANGBASE
 50
0.0
  9
$ANGDIR
 70
     0
  9
$PDMODE
 70
     0
  9
$PDSIZE
 40
0.0
  9
$PLINEWID
 40
0.0
  9
$SPLFRAME
 70
     0
  9
$SPLINETYPE
 70
     6
  9
$SPLINESEGS
 70
     8
  9
$HANDSEED
  5
5C1
  9
$SURFTAB1
 70
     6
  9
$SURFTAB2
 70
     6
  9
$SURFTYPE
 70
     6
  9
$SURFU
 70
     6
  9
$SURFV
 70
     6
  9
$UCSBASE
  2

  9
$UCSNAME
  2

  9
$UCSORG
 10
0.0
 20
0.0
 30
0.0
  9
$UCSXDIR
 10
1.0
 20
0.0
 30
0.0
  9
$UCSYDIR
 10
0.0
 20
1.0
 30
0.0
  9
$UCSORTHOREF
  2

  9
$UCSORTHOVIEW
 70
     0
  9
$UCSORGTOP
 10
0.0
 20
0.0
 30
0.0
  9
$UCSORGBOTTOM
 10
0.0
 20
0.0
 30
0.0
  9
$UCSORGLEFT
 10
0.0
 20
0.0
 30
0.0
  9
$UCSORGRIGHT
 10
0.0
 20
0.0
 30
0.0
  9
$UCSORGFRONT
 10
0.0
 20
0.0
 30
0.0
  9
$UCSORGBACK
 10
0.0
 20
0.0
 30
0.0
  9
$PUCSBASE
  2

  9
$PUCSNAME
  2

  9
$PUCSORG
 10
0.0
 20
0.0
 30
0.0
  9
$PUCSXDIR
 10
1.0
 20
0.0
 30
0.0
  9
$PUCSYDIR
 10
0.0
 20
1.0
 30
0.0
  9
$PUCSORTHOREF
  2

  9
$PUCSORTHOVIEW
 70
     0
  9
$PUCSORGTOP
 10
0.0
 20
0.0
 30
0.0
  9
$PUCSORGBOTTOM
 10
0.0
 20
0.0
 30
0.0
  9
$PUCSORGLEFT
 10
0.0
 20
0.0
 30
0.0
  9
$PUCSORGRIGHT
 10
0.0
 20
0.0
 30
0.0
  9
$PUCSORGFRONT
 10
0.0
 20
0.0
 30
0.0
  9
$PUCSORGBACK
 10
0.0
 20
0.0
 30
0.0
  9
$USERI1
 70
     0
  9
$USERI2
 70
     0
  9
$USERI3
 70
     0
  9
$USERI4
 70
     0
  9
$USERI5
 70
     0
  9
$USERR1
 40
18.1
  9
$USERR2
 40
0.0
  9
$USERR3
 40
0.0
  9
$USERR4
 40
0.0
  9
$USERR5
 40
0.0
  9
$WORLDVIEW
 70
     1
  9
$SHADEDGE
 70
     3
  9
$SHADEDIF
 70
    70
  9
$TILEMODE
 70
     1
  9
$MAXACTVP
 70
    64
  9
$PINSBASE
 10
0.0
 20
0.0
 30
0.0
  9
$PLIMCHECK
 70
     0
  9
$PEXTMIN
 10
1.00000000000000E+20
 20
1.00000000000000E+20
 30
1.00000000000000E+20
  9
$PEXTMAX
 10
-1.00000000000000E+20
 20
-1.00000000000000E+20
 30
-1.00000000000000E+20
  9
$PLIMMIN
 10
0.0
 20
0.0
  9
$PLIMMAX
 10
12.0
 20
9.0
  9
$UNITMODE
 70
     0
  9
$VISRETAIN
 70
     1
  9
$PLINEGEN
 70
     0
  9
$PSLTSCALE
 70
     1
  9
$TREEDEPTH
 70
  3020
  9
$CMLSTYLE
  2
Standard
  9
$CMLJUST
 70
     0
  9
$CMLSCALE
 40
1.0
  9
$PROXYGRAPHICS
 70
     1
  9
$MEASUREMENT
 70
     1
  9
$CELWEIGHT
370
    -1
  9
$ENDCAPS
280
     0
  9
$JOINSTYLE
280
     0
  9
$LWDISPLAY
290
     0
  9
$INSUNITS
 70
     4
  9
$HYPERLINKBASE
  1

  9
$STYLESHEET
  1

  9
$XEDIT
290
     1
  9
$CEPSNTYPE
380
     0
  9
$PSTYLEMODE
290
     1
  9
$FINGERPRINTGUID
  2
{9B09454A-6604-4544-A846-1C95FF8DD0BE}
  9
$VERSIONGUID
  2
{FAEB1C32-E019-11D5-929B-00C0DF256EC4}
  9
$EXTNAMES
290
     1
  9
$PSVPSCALE
 40
0.0
  9
$OLESTARTUP
290
     0
  0
ENDSEC
  0
SECTION
  2
CLASSES
  0
CLASS
  1
ACDBDICTIONARYWDFLT
  2
AcDbDictionaryWithDefault
  3
ObjectDBX Classes
 90
        0
280
     0
281
     0
  0
CLASS
  1
VISUALSTYLE
  2
AcDbVisualStyle
  3
ObjectDBX Classes
 90
     4095
280
     0
281
     0
  0
CLASS
  1
MATERIAL
  2
AcDbMaterial
  3
ObjectDBX Classes
 90
     1153
280
     0
281
     0
  0
CLASS
  1
DICTIONARYVAR
  2
AcDbDictionaryVar
  3
ObjectDBX Classes
 90
        0
280
     0
281
     0
  0
CLASS
  1
ACDBPLACEHOLDER
  2
AcDbPlaceHolder
  3
ObjectDBX Classes
 90
        0
280
     0
281
     0
  0
CLASS
  1
LAYOUT
  2
AcDbLayout
  3
ObjectDBX Classes
 90
        0
280
     0
281
     0
  0
ENDSEC
  0
SECTION
  2
TABLES
  0
TABLE
  2
VPORT
  5
8
330
0
100
AcDbSymbolTable
 70
     1
  0
VPORT
  5
29
330
8
100
AcDbSymbolTableRecord
100
AcDbViewportTableRecord
  2
*Active
 70
     0
 10
0.0
 20
0.0
 11
1.0
 21
1.0
 12
148.5000000000001
 22
105.0000000000001
 13
0.0
 23
0.0
 14
0.5
 24
0.5
 15
0.5
 25
0.5
 16
0.0
 26
0.0
 36
1.0
 17
0.0
 27
0.0
 37
0.0
 40
231.0000000000001
 41
1.60267857142857
 42
50.0
 43
0.0
 44
0.0
 50
0.0
 51
0.0
 71
     0
 72
   100
 73
     1
 74
     3
 75
     0
 76
     0
 77
     0
 78
     0
281
     0
 65
     1
110
0.0
120
0.0
130
0.0
111
1.0
121
0.0
131
0.0
112
0.0
122
1.0
132
0.0
 79
     0
146
0.0
  0
ENDTAB
  0
TABLE
  2
LTYPE
  5
5
330
0
100
AcDbSymbolTable
 70
    10
  0
LTYPE
  5
14
330
5
100
AcDbSymbolTableRecord
100
AcDbLinetypeTableRecord
  2
ByBlock
 70
     0
  3

 72
    65
 73
     0
 40
0.0
  0
LTYPE
  5
15
330
5
100
AcDbSymbolTableRecord
100
AcDbLinetypeTableRecord
  2
ByLayer
 70
     0
  3

 72
    65
 73
     0
 40
0.0
  0
LTYPE
  5
16
330
5
100
AcDbSymbolTableRecord
100
AcDbLinetypeTableRecord
  2
Continuous
 70
     0
  3
Solid line
 72
    65
 73
     0
 40
0.0
  0
LTYPE
  5
3F
330
5
100
AcDbSymbolTableRecord
100
AcDbLinetypeTableRecord
  2
DASHED
 70
     0
  3
Dashed
 72
    65
 73
     2
 40
15.0
 49
7.0
 74
     0
 49
-8.0
 74
     0
  0
LTYPE
  5
40
330
5
100
AcDbSymbolTableRecord
100
AcDbLinetypeTableRecord
  2
DOTTED
 70
     0
  3
Dotted
 72
    65
 73
     2
 40
1.0
 49
0.0
 74
     0
 49
-1.0
 74
     0
  0
LTYPE
  5
41
330
5
100
AcDbSymbolTableRecord
100
AcDbLinetypeTableRecord
  2
DOT_CENTER
 70
     0
  3
Dot_Center
 72
    65
 73
     4
 40
14.0
 49
12.0
 74
     0
 49
-1.0
 74
     0
 49
0.0
 74
     0
 49
-1.0
 74
     0
  0
LTYPE
  5
42
330
5
100
AcDbSymbolTableRecord
100
AcDbLinetypeTableRecord
  2
LONG_DASHED
 70
     0
  3
Long_Dashed
 72
    65
 73
     2
 40
15.0
 49
10.0
 74
     0
 49
-5.0
 74
     0
  0
LTYPE
  5
43
330
5
100
AcDbSymbolTableRecord
100
AcDbLinetypeTableRecord
  2
DASH_CENTER
 70
     0
  3
Dash_Center
 72
    65
 73
     4
 40
14.0
 49
11.0
 74
     0
 49
-1.0
 74
     0
 49
1.0
 74
     0
 49
-1.0
 74
     0
  0
LTYPE
  5
44
330
5
100
AcDbSymbolTableRecord
100
AcDbLinetypeTableRecord
  2
PHANTOM
 70
     0
  3
Phantom
 72
    65
 73
     6
 40
13.0
 49
10.0
 74
     0
 49
-1.0
 74
     0
 49
0.0
 74
     0
 49
-1.0
 74
     0
 49
0.0
 74
     0
 49
-1.0
 74
     0
  0
LTYPE
  5
45
330
5
100
AcDbSymbolTableRecord
100
AcDbLinetypeTableRecord
  2
CENTER_DASH_DASH
 70
     0
  3
Center_Dash_Dash
 72
    65
 73
     6
 40
14.0
 49
9.0
 74
     0
 49
-1.0
 74
     0
 49
1.0
 74
     0
 49
-1.0
 74
     0
 49
1.0
 74
     0
 49
-1.0
 74
     0
  0
LTYPE
  5
46
330
5
100
AcDbSymbolTableRecord
100
AcDbLinetypeTableRecord
  2
CHAIN
 70
     0
  3
CHAIN
 72
    65
 73
     4
 40
4.0
 49
1.0
 74
     0
 49
-1.0
 74
     0
 49
1.0
 74
     0
 49
-1.0
 74
     0
  0
LTYPE
  5
47
330
5
100
AcDbSymbolTableRecord
100
AcDbLinetypeTableRecord
  2
DASHED_SPACE
 70
     0
  3
DASHED_SPACE
 72
    65
 73
     2
 40
2.0
 49
1.0
 74
     0
 49
-1.0
 74
     0
  0
ENDTAB
  0
TABLE
  2
LAYER
  5
2
330
0
100
AcDbSymbolTable
 70
     8
  0
LAYER
  5
10
330
2
100
AcDbSymbolTableRecord
100
AcDbLayerTableRecord
  2
0
 70
     0
 62
     7
  6
Continuous
370
    -3
390
F
  0
LAYER
  5
48
330
2
100
AcDbSymbolTableRecord
100
AcDbLayerTableRecord
  2
1
 70
     0
 62
     7
  6
Continuous
370
    -3
390
F
  0
LAYER
  5
49
330
2
100
AcDbSymbolTableRecord
100
AcDbLayerTableRecord
  2
Bemaßungen_TC_020513_DIN_
 70
     0
 62
     7
  6
Continuous
370
    -3
390
F
  0
LAYER
  5
4A
330
2
100
AcDbSymbolTableRecord
100
AcDbLayerTableRecord
  2
Mittellinie_TC_020513_DIN_
 70
     0
 62
     7
  6
Continuous
370
    -3
390
F
  0
LAYER
  5
4B
330
2
100
AcDbSymbolTableRecord
100
AcDbLayerTableRecord
  2
Mittelpunktmarkierung_TC_020513_DIN_
 70
     0
 62
     7
  6
Continuous
370
    -3
390
F
  0
LAYER
  5
4C
330
2
100
AcDbSymbolTableRecord
100
AcDbLayerTableRecord
  2
Sichtbare_Kanten_TC_020513_DIN_
 70
     0
 62
     7
  6
Continuous
370
    -3
390
F
  0
LAYER
  5
4D
330
2
100
AcDbSymbolTableRecord
100
AcDbLayerTableRecord
  2
Stich_1-Linien_TC_020513_DIN_
 70
     0
 62
     7
  6
Continuous
370
    -3
390
F
  0
LAYER
  5
4E
330
2
100
AcDbSymbolTableRecord
100
AcDbLayerTableRecord
  2
Symbole_TC_020513_DIN_
 70
     0
 62
     7
  6
Continuous
370
    -3
390
F
  0
ENDTAB
  0
TABLE
  2
STYLE
  5
3
330
0
100
AcDbSymbolTable
 70
     4
  0
STYLE
  5
11
330
3
100
AcDbSymbolTableRecord
100
AcDbTextStyleTableRecord
  2
Standard
 70
     0
 40
0.0
 41
1.0
 50
0.0
 71
     0
 42
0.2
  3
txt
  4

  0
STYLE
  5
A3
330
3
100
AcDbSymbolTableRecord
100
AcDbTextStyleTableRecord
  2
CONVERTER_11
 70
     0
 40
0.0
 41
1.2
 50
0.0
 71
     0
 42
0.2
  3
ARIAL.TTF
  4

  0
STYLE
  5
A8
330
3
100
AcDbSymbolTableRecord
100
AcDbTextStyleTableRecord
  2
CONVERTER_12
 70
     0
 40
0.0
 41
1.38
 50
0.0
 71
     0
 42
0.2
  3
ARIAL.TTF
  4

  0
STYLE
  5
526
330
3
100
AcDbSymbolTableRecord
100
AcDbTextStyleTableRecord
  2
CONVERTER_13
 70
     0
 40
0.0
 41
0.75
 50
0.0
 71
     0
 42
0.2
  3
txt.shx
  4

  0
ENDTAB
  0
TABLE
  2
VIEW
  5
6
330
0
100
AcDbSymbolTable
 70
     0
  0
ENDTAB
  0
TABLE
  2
UCS
  5
7
330
0
100
AcDbSymbolTable
 70
     0
  0
ENDTAB
  0
TABLE
  2
APPID
  5
9
330
0
100
AcDbSymbolTable
 70
     1
  0
APPID
  5
12
330
9
100
AcDbSymbolTableRecord
100
AcDbRegAppTableRecord
  2
ACAD
 70
     0
  0
ENDTAB
  0
TABLE
  2
DIMSTYLE
  5
A
330
0
100
AcDbSymbolTable
 70
    11
100
AcDbDimStyleTable
  0
DIMSTYLE
105
27
330
A
100
AcDbSymbolTableRecord
100
AcDbDimStyleTableRecord
  2
Standard
 70
     0
178
     0
340
11
  0
DIMSTYLE
105
531
102
{ACAD_REACTORS
330
532
102
}
330
A
100
AcDbSymbolTableRecord
100
AcDbDimStyleTableRecord
  2
ME10_DIM_10
 70
     0
 41
2.5
 42
1.0
 44
2.0
 73
     0
 74
     0
 77
     1
 78
    12
140
3.5
147
0.8
172
     1
173
     1
174
     1
175
     1
176
     7
177
     7
271
     2
178
     7
271
     2
340
526
  0
DIMSTYLE
105
53C
102
{ACAD_REACTORS
330
53D
102
}
330
A
100
AcDbSymbolTableRecord
100
AcDbDimStyleTableRecord
  2
ME10_DIM_11
 70
     0
 41
2.5
 42
1.0
 44
2.0
 73
     0
 74
     0
 77
     1
 78
    12
140
3.5
147
0.8
172
     1
173
     1
174
     1
175
     1
176
     7
177
     7
271
     2
178
     7
271
     2
340
526
  0
DIMSTYLE
105
547
102
{ACAD_REACTORS
330
548
102
}
330
A
100
AcDbSymbolTableRecord
100
AcDbDimStyleTableRecord
  2
ME10_DIM_12
 70
     0
 41
2.5
 42
1.0
 44
2.0
 73
     0
 74
     0
 77
     1
 78
    12
140
3.5
147
0.8
172
     1
173
     1
174
     1
175
     1
176
     7
177
     7
271
     0
178
     7
271
     0
340
526
  0
DIMSTYLE
105
552
102
{ACAD_REACTORS
330
553
102
}
330
A
100
AcDbSymbolTableRecord
100
AcDbDimStyleTableRecord
  2
ME10_DIM_13
 70
     0
 41
2.5
 42
1.0
 44
2.0
 73
     0
 74
     0
 77
     1
 78
    12
140
3.5
147
0.8
172
     1
173
     1
174
     1
175
     1
176
     7
177
     7
271
     2
178
     7
271
     2
340
526
  0
DIMSTYLE
105
55D
102
{ACAD_REACTORS
330
55E
102
}
330
A
100
AcDbSymbolTableRecord
100
AcDbDimStyleTableRecord
  2
ME10_DIM_14
 70
     0
 41
2.5
 42
1.0
 44
2.0
 73
     0
 74
     0
 77
     1
 78
    12
140
3.5
147
0.8
172
     1
173
     1
174
     1
175
     1
176
     7
177
     7
271
     2
178
     7
271
     2
340
526
  0
DIMSTYLE
105
568
102
{ACAD_REACTORS
330
569
102
}
330
A
100
AcDbSymbolTableRecord
100
AcDbDimStyleTableRecord
  2
ME10_DIM_15
 70
     0
 41
2.5
 42
1.0
 44
2.0
 73
     0
 74
     0
 77
     1
 78
    12
140
3.5
147
0.8
172
     1
173
     1
174
     1
175
     1
176
     7
177
     7
271
     2
178
     7
271
     2
340
526
  0
DIMSTYLE
105
573
102
{ACAD_REACTORS
330
574
102
}
330
A
100
AcDbSymbolTableRecord
100
AcDbDimStyleTableRecord
  2
ME10_DIM_16
 70
     0
 41
2.5
 42
1.0
 44
2.0
 73
     0
 74
     0
 77
     1
 78
    12
140
3.5
147
0.8
172
     1
173
     1
174
     1
175
     1
176
     7
177
     7
271
     2
178
     7
271
     2
340
526
  0
DIMSTYLE
105
57E
102
{ACAD_REACTORS
330
57F
102
}
330
A
100
AcDbSymbolTableRecord
100
AcDbDimStyleTableRecord
  2
ME10_DIM_17
 70
     0
 41
2.5
 42
1.0
 44
2.0
 73
     0
 74
     0
 77
     1
 78
    12
140
3.5
147
0.8
172
     1
173
     1
174
     1
175
     1
176
     7
177
     7
271
     2
178
     7
271
     2
340
526
  0
DIMSTYLE
105
589
102
{ACAD_REACTORS
330
58A
102
}
330
A
100
AcDbSymbolTableRecord
100
AcDbDimStyleTableRecord
  2
ME10_DIM_18
 70
     0
 41
2.5
 42
1.0
 44
2.0
 73
     0
 74
     0
 77
     1
 78
    12
140
3.5
147
0.8
172
     1
173
     1
174
     1
175
     1
176
     7
177
     7
271
     2
178
     7
271
     2
340
526
  0
DIMSTYLE
105
594
102
{ACAD_REACTORS
330
595
102
}
330
A
100
AcDbSymbolTableRecord
100
AcDbDimStyleTableRecord
  2
ME10_DIM_19
 70
     0
 41
2.5
 42
1.0
 44
2.0
 73
     0
 74
     0
 77
     1
 78
    12
140
3.5
147
0.8
172
     1
173
     1
174
     1
175
     1
176
     7
177
     7
271
     2
178
     7
271
     2
340
526
  0
ENDTAB
  0
TABLE
  2
BLOCK_RECORD
  5
1
330
0
100
AcDbSymbolTable
 70
    13
  0
BLOCK_RECORD
  5
1F
330
1
100
AcDbSymbolTableRecord
100
AcDbBlockTableRecord
  2
*Model_Space
340
22
  0
BLOCK_RECORD
  5
1B
330
1
100
AcDbSymbolTableRecord
100
AcDbBlockTableRecord
  2
*Paper_Space
340
1E
  0
BLOCK_RECORD
  5
23
330
1
100
AcDbSymbolTableRecord
100
AcDbBlockTableRecord
  2
*Paper_Space0
340
26
  0
BLOCK_RECORD
  5
4F
330
1
100
AcDbSymbolTableRecord
100
AcDbBlockTableRecord
  2
_formato_A4
340
0
102
{BLKREFS
331
53
102
}
  0
BLOCK_RECORD
  5
52
330
1
100
AcDbSymbolTableRecord
100
AcDbBlockTableRecord
  2
A4_oriz
340
0
102
{BLKREFS
331
56
102
}
  0
BLOCK_RECORD
  5
528
330
1
100
AcDbSymbolTableRecord
100
AcDbBlockTableRecord
  2
*D3
340
0
  0
BLOCK_RECORD
  5
533
330
1
100
AcDbSymbolTableRecord
100
AcDbBlockTableRecord
  2
*D4
340
0
  0
BLOCK_RECORD
  5
53E
330
1
100
AcDbSymbolTableRecord
100
AcDbBlockTableRecord
  2
*D5
340
0
  0
BLOCK_RECORD
  5
549
330
1
100
AcDbSymbolTableRecord
100
AcDbBlockTableRecord
  2
*D6
340
0
  0
BLOCK_RECORD
  5
554
330
1
100
AcDbSymbolTableRecord
100
AcDbBlockTableRecord
  2
*D7
340
0
  0
BLOCK_RECORD
  5
55F
330
1
100
AcDbSymbolTableRecord
100
AcDbBlockTableRecord
  2
*D8
340
0
  0
BLOCK_RECORD
  5
56A
330
1
100
AcDbSymbolTableRecord
100
AcDbBlockTableRecord
  2
*D9
340
0
  0
BLOCK_RECORD
  5
575
330
1
100
AcDbSymbolTableRecord
100
AcDbBlockTableRecord
  2
*D10
340
0
  0
BLOCK_RECORD
  5
580
330
1
100
AcDbSymbolTableRecord
100
AcDbBlockTableRecord
  2
*D11
340
0
  0
BLOCK_RECORD
  5
58B
330
1
100
AcDbSymbolTableRecord
100
AcDbBlockTableRecord
  2
*D12
340
0
  0
ENDTAB
  0
ENDSEC
  0
SECTION
  2
BLOCKS
  0
BLOCK
  5
20
330
1F
100
AcDbEntity
  8
0
100
AcDbBlockBegin
  2
*Model_Space
 70
     0
 10
0.0
 20
0.0
 30
0.0
  3
*Model_Space
  1

  0
ENDBLK
  5
21
330
1F
100
AcDbEntity
  8
0
100
AcDbBlockEnd
  0
BLOCK
  5
1C
330
1B
100
AcDbEntity
 67
     1
  8
0
100
AcDbBlockBegin
  2
*Paper_Space
 70
     0
 10
0.0
 20
0.0
 30
0.0
  3
*Paper_Space
  1

  0
ENDBLK
  5
1D
330
1B
100
AcDbEntity
 67
     1
  8
0
100
AcDbBlockEnd
  0
BLOCK
  5
24
330
23
100
AcDbEntity
  8
0
100
AcDbBlockBegin
  2
*Paper_Space0
 70
     0
 10
0.0
 20
0.0
 30
0.0
  3
*Paper_Space0
  1

  0
ENDBLK
  5
25
330
23
100
AcDbEntity
  8
0
100
AcDbBlockEnd
  0
BLOCK
  5
50
330
4F
100
AcDbEntity
  8
0
100
AcDbBlockBegin
  2
_formato_A4
 70
     0
 10
297.0000000000001
 20
0.0
 30
0.0
  3
_formato_A4
  1

  0
LINE
  5
57
330
4F
100
AcDbEntity
  8
1
  6
Continuous
 62
     7
100
AcDbLine
 10
108.0000000000001
 20
9.99999999999986
 30
0.0
 11
138.0000000000001
 21
9.99999999999986
 31
0.0
  0
LINE
  5
58
330
4F
100
AcDbEntity
  8
1
  6
Continuous
 62
     7
100
AcDbLine
 10
108.0000000000001
 20
14.99999999999989
 30
0.0
 11
138.0000000000001
 21
14.99999999999989
 31
0.0
  0
LINE
  5
59
330
4F
100
AcDbEntity
  8
1
  6
Continuous
 62
     7
100
AcDbLine
 10
248.0000000000001
 20
20.0
 30
0.0
 11
248.0000000000001
 21
5.0
 31
0.0
  0
LINE
  5
5A
330
4F
100
AcDbEntity
  8
1
  6
Continuous
 62
     7
100
AcDbLine
 10
265.3526013774854
 20
20.0
 30
0.0
 11
265.3526013774854
 21
5.0
 31
0.0
  0
LINE
  5
5B
330
4F
100
AcDbEntity
  8
1
  6
Continuous
 62
     7
100
AcDbLine
 10
138.0000000000001
 20
20.0
 30
0.0
 11
138.0000000000001
 21
5.0
 31
0.0
  0
LINE
  5
5C
330
4F
100
AcDbEntity
  8
1
  6
Continuous
 62
     7
100
AcDbLine
 10
148.4999999999997
 20
210.0000000000001
 30
0.0
 11
148.4999999999997
 21
195.0000000000001
 31
0.0
  0
LINE
  5
5D
330
4F
100
AcDbEntity
  8
1
  6
Continuous
 62
     7
100
AcDbLine
 10
0.0
 20
0.0
 30
0.0
 11
297.0000000000001
 21
0.0
 31
0.0
  0
LINE
  5
5E
330
4F
100
AcDbEntity
  8
1
  6
Continuous
 62
     7
100
AcDbLine
 10
0.0
 20
210.0000000000001
 30
0.0
 11
0.0
 21
0.0
 31
0.0
  0
LINE
  5
5F
330
4F
100
AcDbEntity
  8
1
  6
Continuous
 62
     7
100
AcDbLine
 10
297.0000000000001
 20
210.0000000000001
 30
0.0
 11
0.0
 21
210.0000000000001
 31
0.0
  0
LINE
  5
60
330
4F
100
AcDbEntity
  8
1
  6
Continuous
 62
     7
100
AcDbLine
 10
297.0000000000001
 20
0.0
 30
0.0
 11
297.0000000000001
 21
210.0000000000001
 31
0.0
  0
LINE
  5
61
330
4F
100
AcDbEntity
  8
1
  6
Continuous
 62
     7
100
AcDbLine
 10
4.99999999999989
 20
5.0
 30
0.0
 11
292.0000000000001
 21
5.0
 31
0.0
  0
LINE
  5
62
330
4F
100
AcDbEntity
  8
1
  6
Continuous
 62
     7
100
AcDbLine
 10
292.0000000000001
 20
5.0
 30
0.0
 11
292.0000000000001
 21
189.0
 31
0.0
  0
LINE
  5
63
330
4F
100
AcDbEntity
  8
1
  6
Continuous
 62
     7
100
AcDbLine
 10
292.0000000000001
 20
189.0
 30
0.0
 11
4.99999999999989
 21
189.0
 31
0.0
  0
LINE
  5
64
102
{ACAD_REACTORS
330
B1
102
}
330
4F
100
AcDbEntity
  8
1
  6
Continuous
 62
     7
100
AcDbLine
 10
281.0096340220761
 20
10.07749983983263
 30
0.0
 11
281.0096340220761
 21
14.92250016016737
 31
0.0
  0
LINE
  5
65
102
{ACAD_REACTORS
330
AE
102
}
330
4F
100
AcDbEntity
  8
1
  6
Continuous
 62
     7
100
AcDbLine
 10
279.6763006887427
 20
12.5
 30
0.0
 11
279.6763006887427
 21
14.23205080756884
 31
0.0
  0
LINE
  5
66
102
{ACAD_REACTORS
330
AE
102
}
330
4F
100
AcDbEntity
  8
1
  6
Continuous
 62
     7
100
AcDbLine
 10
279.6763006887427
 20
14.23205080756884
 30
0.0
 11
278.8206382560401
 21
12.75
 31
0.0
  0
LINE
  5
67
102
{ACAD_REACTORS
330
AE
102
}
330
4F
100
AcDbEntity
  8
1
  6
Continuous
 62
     7
100
AcDbLine
 10
278.5319631214452
 20
12.75
 30
0.0
 11
277.6763006887427
 21
14.23205080756884
 31
0.0
  0
LINE
  5
68
102
{ACAD_REACTORS
330
AE
102
}
330
4F
100
AcDbEntity
  8
1
  6
Continuous
 62
     7
100
AcDbLine
 10
277.6763006887427
 20
14.23205080756884
 30
0.0
 11
277.6763006887427
 21
12.5
 31
0.0
  0
LINE
  5
69
330
4F
100
AcDbEntity
  8
1
  6
Continuous
 62
     7
100
AcDbLine
 10
270.2598654136012
 20
12.64436426434133
 30
0.0
 11
278.6763006887427
 21
17.5
 31
0.0
  0
LINE
  5
6A
330
4F
100
AcDbEntity
  8
1
  6
Continuous
 62
     7
100
AcDbLine
 10
278.6763006887427
 20
17.5
 30
0.0
 11
287.0927359638842
 21
12.64436426434133
 31
0.0
  0
LINE
  5
6B
330
4F
100
AcDbEntity
  8
1
  6
Continuous
 62
     7
100
AcDbLine
 10
287.0927359638842
 20
12.35563573565855
 30
0.0
 11
278.6763006887427
 21
7.5
 31
0.0
  0
LINE
  5
6C
330
4F
100
AcDbEntity
  8
1
  6
Continuous
 62
     7
100
AcDbLine
 10
278.6763006887427
 20
7.5
 30
0.0
 11
270.2598654136012
 21
12.35563573565855
 31
0.0
  0
LINE
  5
6D
102
{ACAD_REACTORS
330
AE
102
}
330
4F
100
AcDbEntity
  8
1
  6
Continuous
 62
     7
100
AcDbLine
 10
277.009634022076
 20
12.5
 30
0.0
 11
277.009634022076
 21
15.73121731203457
 31
0.0
  0
LINE
  5
6E
102
{ACAD_REACTORS
330
AE
102
}
330
4F
100
AcDbEntity
  8
1
  6
Continuous
 62
     7
100
AcDbLine
 10
277.5040677056995
 20
15.86370041827229
 30
0.0
 11
278.6763006887427
 21
13.83333333333326
 31
0.0
  0
LINE
  5
6F
102
{ACAD_REACTORS
330
AE
102
}
330
4F
100
AcDbEntity
  8
1
  6
Continuous
 62
     7
100
AcDbLine
 10
277.009634022076
 20
12.5
 30
0.0
 11
277.009634022076
 21
10.84758507263291
 31
0.0
  0
LINE
  5
70
102
{ACAD_REACTORS
330
AE
102
}
330
4F
100
AcDbEntity
  8
1
  6
Continuous
 62
     7
100
AcDbLine
 10
277.6763006887427
 20
10.84758507263291
 30
0.0
 11
277.6763006887427
 21
12.5
 31
0.0
  0
LINE
  5
71
102
{ACAD_REACTORS
330
AE
102
}
330
4F
100
AcDbEntity
  8
1
  6
Continuous
 62
     7
100
AcDbLine
 10
279.6763006887427
 20
12.5
 30
0.0
 11
279.6763006887427
 21
9.30826907060179
 31
0.0
  0
LINE
  5
72
102
{ACAD_REACTORS
330
AE
102
}
330
4F
100
AcDbEntity
  8
1
  6
Continuous
 62
     7
100
AcDbLine
 10
280.3429673554094
 20
9.30826907060179
 30
0.0
 11
280.3429673554094
 21
15.73121731203457
 31
0.0
  0
LINE
  5
73
102
{ACAD_REACTORS
330
AE
102
}
330
4F
100
AcDbEntity
  8
1
  6
Continuous
 62
     7
100
AcDbLine
 10
279.848533671786
 20
15.86370041827229
 30
0.0
 11
278.6763006887427
 21
13.83333333333326
 31
0.0
  0
LINE
  5
74
102
{ACAD_REACTORS
330
AF
102
}
330
4F
100
AcDbEntity
  8
1
  6
Continuous
 62
     7
100
AcDbLine
 10
275.6763006887427
 20
10.27002114803258
 30
0.0
 11
275.6763006887427
 21
14.92250016016737
 31
0.0
  0
LINE
  5
75
102
{ACAD_REACTORS
330
AF
102
}
330
4F
100
AcDbEntity
  8
1
  6
Continuous
 62
     7
100
AcDbLine
 10
276.3429673554094
 20
14.92250016016737
 30
0.0
 11
276.3429673554094
 21
10.2700211480327
 31
0.0
  0
LINE
  5
76
102
{ACAD_REACTORS
330
AF
102
}
330
4F
100
AcDbEntity
  8
1
  6
Continuous
 62
     7
100
AcDbLine
 10
276.3429673554094
 20
10.2700211480327
 30
0.0
 11
278.5095415065726
 21
9.0200745223616
 31
0.0
  0
LINE
  5
77
102
{ACAD_REACTORS
330
AF
102
}
330
4F
100
AcDbEntity
  8
1
  6
Continuous
 62
     7
100
AcDbLine
 10
278.1763932042462
 20
8.4426174649958
 30
0.0
 11
276.0098190530831
 21
9.6925640906669
 31
0.0
  0
LINE
  5
78
102
{ACAD_REACTORS
330
B0
102
}
330
4F
100
AcDbEntity
  8
1
  6
Continuous
 62
     7
100
AcDbLine
 10
275.009634022076
 20
14.15326939093666
 30
0.0
 11
275.009634022076
 21
11.0392519172633
 31
0.0
  0
LINE
  5
79
102
{ACAD_REACTORS
330
B0
102
}
330
4F
100
AcDbEntity
  8
1
  6
Continuous
 62
     7
100
AcDbLine
 10
275.009634022076
 20
11.0392519172633
 30
0.0
 11
275.009634022076
 21
10.84673060906323
 31
0.0
  0
LINE
  5
7A
102
{ACAD_REACTORS
330
B0
102
}
330
4F
100
AcDbEntity
  8
1
  6
Continuous
 62
     7
100
AcDbLine
 10
274.3429673554094
 20
10.84673060906323
 30
0.0
 11
274.3429673554094
 21
14.15326939093666
 31
0.0
  0
LINE
  5
7B
102
{ACAD_REACTORS
330
B1
102
}
330
4F
100
AcDbEntity
  8
1
  6
Continuous
 62
     7
100
AcDbLine
 10
281.5095415065726
 20
15.21122868885027
 30
0.0
 11
282.8428748399059
 21
14.44199791961944
 31
0.0
  0
LINE
  5
7C
102
{ACAD_REACTORS
330
B1
102
}
330
4F
100
AcDbEntity
  8
1
  6
Continuous
 62
     7
100
AcDbLine
 10
282.5097265375795
 20
13.86454086225376
 30
0.0
 11
281.6763006887427
 21
14.34536346735195
 31
0.0
  0
LINE
  5
7D
102
{ACAD_REACTORS
330
B1
102
}
330
4F
100
AcDbEntity
  8
1
  6
Continuous
 62
     7
100
AcDbLine
 10
281.6763006887427
 20
14.34536346735195
 30
0.0
 11
281.6763006887427
 21
12.83333333333326
 31
0.0
  0
LINE
  5
7E
102
{ACAD_REACTORS
330
B1
102
}
330
4F
100
AcDbEntity
  8
1
  6
Continuous
 62
     7
100
AcDbLine
 10
281.6763006887427
 20
12.83333333333326
 30
0.0
 11
282.6763006887427
 21
12.83333333333326
 31
0.0
  0
LINE
  5
7F
102
{ACAD_REACTORS
330
B1
102
}
330
4F
100
AcDbEntity
  8
1
  6
Continuous
 62
     7
100
AcDbLine
 10
282.6763006887427
 20
12.16666666666663
 30
0.0
 11
281.6763006887427
 21
12.16666666666663
 31
0.0
  0
LINE
  5
80
102
{ACAD_REACTORS
330
B1
102
}
330
4F
100
AcDbEntity
  8
1
  6
Continuous
 62
     7
100
AcDbLine
 10
281.6763006887427
 20
12.16666666666663
 30
0.0
 11
281.6763006887427
 21
10.65463653264794
 31
0.0
  0
LINE
  5
81
102
{ACAD_REACTORS
330
B1
102
}
330
4F
100
AcDbEntity
  8
1
  6
Continuous
 62
     7
100
AcDbLine
 10
281.6763006887427
 20
10.65463653264794
 30
0.0
 11
282.5097265375795
 21
11.13545913774624
 31
0.0
  0
LINE
  5
82
102
{ACAD_REACTORS
330
B1
102
}
330
4F
100
AcDbEntity
  8
1
  6
Continuous
 62
     7
100
AcDbLine
 10
282.8428748399059
 20
10.55800208038033
 30
0.0
 11
281.5095415065726
 21
9.78877131114973
 31
0.0
  0
LINE
  5
83
330
4F
100
AcDbEntity
  8
1
  6
Continuous
 62
     7
100
AcDbLine
 10
108.0000000000001
 20
24.99999999999999
 30
0.0
 11
292.0000000000001
 21
24.99999999999999
 31
0.0
  0
LINE
  5
84
330
4F
100
AcDbEntity
  8
1
  6
Continuous
 62
     7
100
AcDbLine
 10
115.0000000000001
 20
20.0
 30
0.0
 11
115.0000000000001
 21
24.99999999999999
 31
0.0
  0
LINE
  5
85
330
4F
100
AcDbEntity
  8
1
  6
Continuous
 62
     7
100
AcDbLine
 10
133.0000000000002
 20
20.0
 30
0.0
 11
133.0000000000002
 21
24.99999999999999
 31
0.0
  0
LINE
  5
86
330
4F
100
AcDbEntity
  8
1
  6
Continuous
 62
     7
100
AcDbLine
 10
108.0000000000001
 20
29.99999999999999
 30
0.0
 11
292.0000000000001
 21
29.99999999999999
 31
0.0
  0
LINE
  5
87
330
4F
100
AcDbEntity
  8
1
  6
Continuous
 62
     7
100
AcDbLine
 10
115.0000000000001
 20
24.99999999999999
 30
0.0
 11
115.0000000000001
 21
29.99999999999999
 31
0.0
  0
LINE
  5
88
330
4F
100
AcDbEntity
  8
1
  6
Continuous
 62
     7
100
AcDbLine
 10
133.0000000000002
 20
24.99999999999999
 30
0.0
 11
133.0000000000002
 21
29.99999999999999
 31
0.0
  0
LINE
  5
89
330
4F
100
AcDbEntity
  8
1
  6
Continuous
 62
     7
100
AcDbLine
 10
108.0000000000001
 20
34.99999999999999
 30
0.0
 11
292.0000000000001
 21
34.99999999999999
 31
0.0
  0
LINE
  5
8A
330
4F
100
AcDbEntity
  8
1
  6
Continuous
 62
     7
100
AcDbLine
 10
115.0000000000001
 20
29.99999999999999
 30
0.0
 11
115.0000000000001
 21
34.99999999999999
 31
0.0
  0
LINE
  5
8B
330
4F
100
AcDbEntity
  8
1
  6
Continuous
 62
     7
100
AcDbLine
 10
133.0000000000002
 20
29.99999999999999
 30
0.0
 11
133.0000000000002
 21
34.99999999999999
 31
0.0
  0
LINE
  5
8C
330
4F
100
AcDbEntity
  8
1
  6
Continuous
 62
     7
100
AcDbLine
 10
108.0000000000001
 20
39.99999999999999
 30
0.0
 11
292.0000000000001
 21
39.99999999999999
 31
0.0
  0
LINE
  5
8D
330
4F
100
AcDbEntity
  8
1
  6
Continuous
 62
     7
100
AcDbLine
 10
115.0000000000001
 20
34.99999999999999
 30
0.0
 11
115.0000000000001
 21
39.99999999999999
 31
0.0
  0
LINE
  5
8E
330
4F
100
AcDbEntity
  8
1
  6
Continuous
 62
     7
100
AcDbLine
 10
133.0000000000002
 20
34.99999999999999
 30
0.0
 11
133.0000000000002
 21
39.99999999999999
 31
0.0
  0
LINE
  5
8F
330
4F
100
AcDbEntity
  8
1
  6
Continuous
 62
     7
100
AcDbLine
 10
4.99999999999989
 20
189.0
 30
0.0
 11
4.99999999999989
 21
5.0
 31
0.0
  0
LINE
  5
90
330
4F
100
AcDbEntity
  8
1
  6
Continuous
 62
     7
100
AcDbLine
 10
108.0000000000001
 20
20.0
 30
0.0
 11
292.0000000000001
 21
20.0
 31
0.0
  0
LINE
  5
91
330
4F
100
AcDbEntity
  8
1
  6
Continuous
 62
     7
100
AcDbLine
 10
108.0000000000001
 20
4.99999999999988
 30
0.0
 11
108.0000000000001
 21
39.99999999999999
 31
0.0
  0
ARC
  5
92
102
{ACAD_REACTORS
330
AE
102
}
330
4F
100
AcDbEntity
  8
1
  6
Continuous
 62
     7
100
AcDbCircle
 10
277.2746002345513
 20
15.73121731203457
 30
0.0
 40
0.2649662124753838
100
AcDbArc
 50
30.00000000000692
 51
180.0
  0
ARC
  5
93
102
{ACAD_REACTORS
330
AE
102
}
330
4F
100
AcDbEntity
  8
1
  6
Continuous
 62
     7
100
AcDbCircle
 10
277.3429673554094
 20
10.84758507263291
 30
0.0
 40
0.3333333333334281
100
AcDbArc
 50
180.0
 51
0.0
  0
ARC
  5
94
102
{ACAD_REACTORS
330
AE
102
}
330
4F
100
AcDbEntity
  8
1
  6
Continuous
 62
     7
100
AcDbCircle
 10
280.0096340220761
 20
9.30826907060179
 30
0.0
 40
0.3333333333334281
100
AcDbArc
 50
180.0
 51
0.0
  0
ARC
  5
95
102
{ACAD_REACTORS
330
AE
102
}
330
4F
100
AcDbEntity
  8
1
  6
Continuous
 62
     7
100
AcDbCircle
 10
280.0780011429341
 20
15.73121731203457
 30
0.0
 40
0.2649662124753149
100
AcDbArc
 50
0.0
 51
149.9999999999808
  0
ARC
  5
96
102
{ACAD_REACTORS
330
AF
102
}
330
4F
100
AcDbEntity
  8
1
  6
Continuous
 62
     7
100
AcDbCircle
 10
276.009634022076
 20
14.92250016016737
 30
0.0
 40
0.3333333333334281
100
AcDbArc
 50
0.0
 51
180.0
  0
ARC
  5
97
102
{ACAD_REACTORS
330
AF
102
}
330
4F
100
AcDbEntity
  8
1
  6
Continuous
 62
     7
100
AcDbCircle
 10
278.3429673554094
 20
8.7313459936787
 30
0.0
 40
0.333333333333374
100
AcDbArc
 50
240.0183606311496
 51
60.01836063115814
  0
ARC
  5
98
102
{ACAD_REACTORS
330
B0
102
}
330
4F
100
AcDbEntity
  8
1
  6
Continuous
 62
     7
100
AcDbCircle
 10
274.6763006887427
 20
14.15326939093666
 30
0.0
 40
0.3333333333333144
100
AcDbArc
 50
0.0
 51
180.0
  0
ARC
  5
99
102
{ACAD_REACTORS
330
B0
102
}
330
4F
100
AcDbEntity
  8
1
  6
Continuous
 62
     7
100
AcDbCircle
 10
274.6763006887427
 20
10.84673060906323
 30
0.0
 40
0.3333333333332575
100
AcDbArc
 50
180.0
 51
0.0
  0
ARC
  5
9A
102
{ACAD_REACTORS
330
B1
102
}
330
4F
100
AcDbEntity
  8
1
  6
Continuous
 62
     7
100
AcDbCircle
 10
282.6763006887427
 20
14.15326939093666
 30
0.0
 40
0.3333333333333471
100
AcDbArc
 50
240.0183606311583
 51
60.01836063113944
  0
ARC
  5
9B
102
{ACAD_REACTORS
330
B1
102
}
330
4F
100
AcDbEntity
  8
1
  6
Continuous
 62
     7
100
AcDbCircle
 10
282.6763006887427
 20
12.5
 30
0.0
 40
0.3333333333333695
100
AcDbArc
 50
270.0
 51
90.0
  0
ARC
  5
9C
102
{ACAD_REACTORS
330
B1
102
}
330
4F
100
AcDbEntity
  8
1
  6
Continuous
 62
     7
100
AcDbCircle
 10
282.6763006887427
 20
10.84673060906323
 30
0.0
 40
0.333333333333374
100
AcDbArc
 50
299.9816393688503
 51
119.9816393688323
  0
ARC
  5
9D
102
{ACAD_REACTORS
330
AE
102
}
330
4F
100
AcDbEntity
  8
1
  6
Continuous
 62
     7
100
AcDbCircle
 10
278.6763006887427
 20
12.83333333333326
 30
0.0
 40
0.166666666666709
100
AcDbArc
 50
209.9999999999622
 51
330.000000000028
  0
ARC
  5
9E
102
{ACAD_REACTORS
330
AF
102
}
330
4F
100
AcDbEntity
  8
1
  6
Continuous
 62
     7
100
AcDbCircle
 10
276.3429673554094
 20
10.2700211480327
 30
0.0
 40
0.6666666666667425
100
AcDbArc
 50
180.0000000000104
 51
240.0183606311583
  0
ARC
  5
9F
330
4F
100
AcDbEntity
  8
1
  6
Continuous
 62
     7
100
AcDbCircle
 10
270.3431524891828
 20
12.5
 30
0.0
 40
0.1666666666665839
100
AcDbArc
 50
119.9816393688708
 51
240.0183606311496
  0
ARC
  5
A0
330
4F
100
AcDbEntity
  8
1
  6
Continuous
 62
     7
100
AcDbCircle
 10
287.0094488883026
 20
12.5
 30
0.0
 40
0.166666666666687
100
AcDbArc
 50
299.9816393688503
 51
60.01836063112923
  0
ARC
  5
A1
102
{ACAD_REACTORS
330
B1
102
}
330
4F
100
AcDbEntity
  8
1
  6
Continuous
 62
     7
100
AcDbCircle
 10
281.3429673554094
 20
14.92250016016737
 30
0.0
 40
0.3333333333333456
100
AcDbArc
 50
60.01836063115814
 51
180.0
  0
ARC
  5
A2
102
{ACAD_REACTORS
330
B1
102
}
330
4F
100
AcDbEntity
  8
1
  6
Continuous
 62
     7
100
AcDbCircle
 10
281.3429673554094
 20
10.07749983983263
 30
0.0
 40
0.3333333333333144
100
AcDbArc
 50
180.0
 51
299.9816393688416
  0
MTEXT
  5
A4
330
4F
100
AcDbEntity
  8
1
 62
     7
100
AcDbMText
 10
119.6000000000001
 20
7.49999999999987
 30
0.0
 40
3.0
 41
0.0
 71
     4
 72
     1
  1
Radice
  7
CONVERTER_11
 73
     1
 44
1.32052821128451
  0
MTEXT
  5
A5
330
4F
100
AcDbEntity
  8
1
 62
     7
100
AcDbMText
 10
109.0000000000001
 20
7.49999999999987
 30
0.0
 40
3.0
 41
0.0
 71
     4
 72
     1
  1
Sign.
  7
CONVERTER_11
 73
     1
 44
1.32052821128451
  0
MTEXT
  5
A6
330
4F
100
AcDbEntity
  8
1
 62
     7
100
AcDbMText
 10
119.6000000000001
 20
12.49999999999987
 30
0.0
 40
3.0
 41
0.0
 71
     4
 72
     1
  1
19/06/14
  7
CONVERTER_11
 73
     1
 44
1.32052821128451
  0
MTEXT
  5
A7
330
4F
100
AcDbEntity
  8
1
 62
     7
100
AcDbMText
 10
109.0000000000001
 20
12.49999999999987
 30
0.0
 40
3.0
 41
0.0
 71
     4
 72
     1
  1
Date
  7
CONVERTER_11
 73
     1
 44
1.32052821128451
  0
MTEXT
  5
A9
330
4F
100
AcDbEntity
  8
1
 62
     7
100
AcDbMText
 10
123.0000000000001
 20
17.49999999999994
 30
0.0
 40
2.5
 41
0.0
 71
     5
 72
     1
  1
dimensions in mm
  7
CONVERTER_12
 73
     1
 44
0.60024009603842
  0
MTEXT
  5
AA
330
4F
100
AcDbEntity
  8
1
 62
     7
100
AcDbMText
 10
151.4999999999997
 20
194.0000000000001
 30
0.0
 40
4.0
 41
0.0
 71
     5
 72
     1
  1
Diritti riservati      All rights reserved
  7
CONVERTER_11
 73
     1
 44
1.32052821128451
  0
MTEXT
  5
AB
330
4F
100
AcDbEntity
  8
1
 62
     7
100
AcDbMText
 10
144.2763006887428
 20
12.5
 30
0.0
 40
4.5
 41
0.0
 71
     4
 72
     1
  1
JCVP 10 L\PSurface mounting housing, 1 lever, PG16 - JEI
  7
CONVERTER_11
 73
     1
 44
0.90036014405762
  0
MTEXT
  5
AC
330
4F
100
AcDbEntity
  8
1
 62
     7
100
AcDbMText
 10
256.6763006887427
 20
16.26063942075598
 30
0.0
 40
3.0
 41
0.0
 71
     5
 72
     1
  1
Scale
  7
CONVERTER_11
 73
     1
 44
1.32052821128451
  0
MTEXT
  5
AD
330
4F
100
AcDbEntity
  8
1
 62
     7
100
AcDbMText
 10
256.6763006887427
 20
10.06063942075605
 30
0.0
 40
4.5
 41
0.0
 71
     5
 72
     1
  1
1:1
  7
CONVERTER_11
 73
     1
 44
1.32052821128451
  0
HATCH
  5
AE
330
4F
100
AcDbEntity
  8
1
  6
Continuous
 62
     7
100
AcDbHatch
 10
0.0
 20
0.0
 30
0.0
210
0.0
220
0.0
230
1.0
  2
SOLID
 70
     1
 71
     1
 91
        1
 92
        1
 93
       16
 72
     2
 10
277.2746002345513
 20
15.73121731203457
 40
0.2649662124753838
 50
30.00000000000692
 51
180.0
 73
     1
 72
     1
 10
277.009634022076
 20
15.73121731203457
 11
277.009634022076
 21
12.5
 72
     1
 10
277.009634022076
 20
12.5
 11
277.009634022076
 21
10.84758507263291
 72
     2
 10
277.3429673554094
 20
10.84758507263291
 40
0.3333333333334281
 50
180.0
 51
360.0
 73
     1
 72
     1
 10
277.6763006887427
 20
10.84758507263291
 11
277.6763006887427
 21
12.5
 72
     1
 10
277.6763006887427
 20
12.5
 11
277.6763006887427
 21
14.23205080756884
 72
     1
 10
277.6763006887427
 20
14.23205080756884
 11
278.5319631214452
 21
12.75
 72
     2
 10
278.6763006887427
 20
12.83333333333326
 40
0.166666666666709
 50
209.9999999999622
 51
330.000000000028
 73
     1
 72
     1
 10
278.8206382560401
 20
12.75
 11
279.6763006887427
 21
14.23205080756884
 72
     1
 10
279.6763006887427
 20
14.23205080756884
 11
279.6763006887427
 21
12.5
 72
     1
 10
279.6763006887427
 20
12.5
 11
279.6763006887427
 21
9.308269070601789
 72
     2
 10
280.0096340220761
 20
9.308269070601789
 40
0.3333333333334281
 50
180.0
 51
360.0
 73
     1
 72
     1
 10
280.3429673554094
 20
9.308269070601789
 11
280.3429673554094
 21
15.73121731203457
 72
     2
 10
280.0780011429341
 20
15.73121731203457
 40
0.2649662124753149
 50
0.0
 51
149.9999999999808
 73
     1
 72
     1
 10
279.848533671786
 20
15.86370041827229
 11
278.6763006887427
 21
13.83333333333326
 72
     1
 10
278.6763006887427
 20
13.83333333333326
 11
277.5040677056995
 21
15.86370041827229
 97
       16
330
73
330
95
330
72
330
94
330
71
330
65
330
66
330
9D
330
67
330
68
330
70
330
93
330
6F
330
6D
330
92
330
6E
 75
     0
 76
     1
 98
        1
 10
0.0
 20
0.0
  0
HATCH
  5
AF
330
4F
100
AcDbEntity
  8
1
  6
Continuous
 62
     7
100
AcDbHatch
 10
0.0
 20
0.0
 30
0.0
210
0.0
220
0.0
230
1.0
  2
SOLID
 70
     1
 71
     1
 91
        1
 92
        1
 93
        7
 72
     1
 10
276.3429673554094
 20
14.92250016016737
 11
276.3429673554094
 21
10.2700211480327
 72
     1
 10
276.3429673554094
 20
10.2700211480327
 11
278.5095415065726
 21
9.020074522361597
 72
     2
 10
278.3429673554094
 20
8.731345993678698
 40
0.333333333333374
 50
299.9816393688419
 51
479.9816393688503
 73
     0
 72
     1
 10
278.1763932042462
 20
8.442617464995799
 11
276.0098190530831
 21
9.692564090666899
 72
     2
 10
276.3429673554094
 20
10.2700211480327
 40
0.6666666666667425
 50
119.9816393688417
 51
179.9999999999896
 73
     0
 72
     1
 10
275.6763006887427
 20
10.27002114803258
 11
275.6763006887427
 21
14.92250016016737
 72
     2
 10
276.009634022076
 20
14.92250016016737
 40
0.3333333333334281
 50
180.0
 51
360.0
 73
     0
 97
        7
330
75
330
76
330
97
330
77
330
9E
330
74
330
96
 75
     0
 76
     1
 98
        1
 10
0.0
 20
0.0
  0
HATCH
  5
B0
330
4F
100
AcDbEntity
  8
1
  6
Continuous
 62
     7
100
AcDbHatch
 10
0.0
 20
0.0
 30
0.0
210
0.0
220
0.0
230
1.0
  2
SOLID
 70
     1
 71
     1
 91
        1
 92
        1
 93
        5
 72
     1
 10
275.009634022076
 20
14.15326939093666
 11
275.009634022076
 21
11.0392519172633
 72
     1
 10
275.009634022076
 20
11.0392519172633
 11
275.009634022076
 21
10.84673060906323
 72
     2
 10
274.6763006887427
 20
10.84673060906323
 40
0.3333333333332575
 50
0.0
 51
180.0
 73
     0
 72
     1
 10
274.3429673554094
 20
10.84673060906323
 11
274.3429673554094
 21
14.15326939093666
 72
     2
 10
274.6763006887427
 20
14.15326939093666
 40
0.3333333333333144
 50
180.0
 51
360.0
 73
     0
 97
        5
330
78
330
79
330
99
330
7A
330
98
 75
     0
 76
     1
 98
        1
 10
0.0
 20
0.0
  0
HATCH
  5
B1
330
4F
100
AcDbEntity
  8
1
  6
Continuous
 62
     7
100
AcDbHatch
 10
0.0
 20
0.0
 30
0.0
210
0.0
220
0.0
230
1.0
  2
SOLID
 70
     1
 71
     1
 91
        1
 92
        1
 93
       14
 72
     1
 10
282.5097265375795
 20
13.86454086225376
 11
281.6763006887427
 21
14.34536346735195
 72
     1
 10
281.6763006887427
 20
14.34536346735195
 11
281.6763006887427
 21
12.83333333333326
 72
     1
 10
281.6763006887427
 20
12.83333333333326
 11
282.6763006887427
 21
12.83333333333326
 72
     2
 10
282.6763006887427
 20
12.5
 40
0.3333333333333695
 50
270.0
 51
450.0
 73
     0
 72
     1
 10
282.6763006887427
 20
12.16666666666663
 11
281.6763006887427
 21
12.16666666666663
 72
     1
 10
281.6763006887427
 20
12.16666666666663
 11
281.6763006887427
 21
10.65463653264794
 72
     1
 10
281.6763006887427
 20
10.65463653264794
 11
282.5097265375795
 21
11.13545913774624
 72
     2
 10
282.6763006887427
 20
10.84673060906323
 40
0.333333333333374
 50
240.0183606311678
 51
420.0183606311497
 73
     0
 72
     1
 10
282.8428748399059
 20
10.55800208038033
 11
281.5095415065726
 21
9.788771311149727
 72
     2
 10
281.3429673554094
 20
10.07749983983263
 40
0.3333333333333144
 50
60.01836063115844
 51
180.0
 73
     0
 72
     1
 10
281.0096340220761
 20
10.07749983983263
 11
281.0096340220761
 21
14.92250016016737
 72
     2
 10
281.3429673554094
 20
14.92250016016737
 40
0.3333333333333456
 50
180.0
 51
299.9816393688419
 73
     0
 72
     1
 10
281.5095415065726
 20
15.21122868885027
 11
282.8428748399059
 21
14.44199791961944
 72
     2
 10
282.6763006887427
 20
14.15326939093666
 40
0.3333333333333471
 50
299.9816393688606
 51
479.9816393688417
 73
     0
 97
       14
330
7B
330
A1
330
64
330
A2
330
82
330
9C
330
81
330
80
330
7F
330
9B
330
7E
330
7D
330
7C
330
9A
 75
     0
 76
     1
 98
        1
 10
0.0
 20
0.0
  0
ENDBLK
  5
51
330
4F
100
AcDbEntity
  8
0
100
AcDbBlockEnd
  0
BLOCK
  5
54
330
52
100
AcDbEntity
  8
0
100
AcDbBlockBegin
  2
A4_oriz
 70
     0
 10
297.0000000000001
 20
0.0
 30
0.0
  3
A4_oriz
  1

  0
INSERT
  5
53
330
52
100
AcDbEntity
  8
1
100
AcDbBlockReference
  2
_formato_A4
 10
297.0000000000001
 20
0.0
 30
0.0
  0
ENDBLK
  5
55
330
52
100
AcDbEntity
  8
0
100
AcDbBlockEnd
  0
BLOCK
  5
52F
330
528
100
AcDbEntity
  8
0
100
AcDbBlockBegin
  2
*D3
 70
     1
 10
0.0
 20
0.0
 30
0.0
  3
*D3
  1

  0
LINE
  5
529
330
528
100
AcDbEntity
  8
Bemaßungen_TC_020513_DIN_
  6
Continuous
 62
     7
100
AcDbLine
 10
165.3882769046237
 20
82.69241459254161
 30
0.0
 11
165.3882769046237
 21
111.7964145925416
 31
0.0
  0
LINE
  5
52A
330
528
100
AcDbEntity
  8
Bemaßungen_TC_020513_DIN_
  6
Continuous
 62
     7
100
AcDbLine
 10
150.3882769046236
 20
111.7964145925416
 30
0.0
 11
167.3882769046237
 21
111.7964145925416
 31
0.0
  0
LINE
  5
52B
330
528
100
AcDbEntity
  8
Bemaßungen_TC_020513_DIN_
  6
Continuous
 62
     7
100
AcDbLine
 10
150.3882769046236
 20
82.69241459254161
 30
0.0
 11
167.3882769046237
 21
82.69241459254161
 31
0.0
  0
SOLID
  5
52C
330
528
100
AcDbEntity
  8
Bemaßungen_TC_020513_DIN_
 62
     7
100
AcDbTrace
 10
165.7174081485922
 20
109.2964145925416
 30
0.0
 11
165.0591456606552
 21
109.2964145925416
 31
0.0
 12
165.3882769046237
 22
111.7964145925416
 32
0.0
 13
165.3882769046237
 23
111.7964145925416
 33
0.0
  0
SOLID
  5
52D
330
528
100
AcDbEntity
  8
Bemaßungen_TC_020513_DIN_
 62
     7
100
AcDbTrace
 10
165.0591456606552
 20
85.19241459254161
 30
0.0
 11
165.7174081485922
 21
85.19241459254161
 31
0.0
 12
165.3882769046237
 22
82.69241459254161
 32
0.0
 13
165.3882769046237
 23
82.69241459254161
 33
0.0
  0
MTEXT
  5
52E
330
528
100
AcDbEntity
  8
Bemaßungen_TC_020513_DIN_
 62
     7
100
AcDbMText
 10
162.3793522237985
 20
93.47693278262804
 30
0.0
 40
3.5
 41
0.0
 71
     7
 72
     1
  1
PG21
  7
CONVERTER_13
 11
0.0
 21
1.0
 31
0.0
 73
     1
 44
0.45454545454545
  0
ENDBLK
  5
530
330
528
100
AcDbEntity
  8
0
100
AcDbBlockEnd
  0
BLOCK
  5
53A
330
533
100
AcDbEntity
  8
0
100
AcDbBlockBegin
  2
*D4
 70
     1
 10
0.0
 20
0.0
 30
0.0
  3
*D4
  1

  0
LINE
  5
534
330
533
100
AcDbEntity
  8
Bemaßungen_TC_020513_DIN_
  6
Continuous
 62
     7
100
AcDbLine
 10
22.38827690462384
 20
158.8544145925416
 30
0.0
 11
22.38827690462384
 21
77.8544145925415
 31
0.0
  0
LINE
  5
535
330
533
100
AcDbEntity
  8
Bemaßungen_TC_020513_DIN_
  6
Continuous
 62
     7
100
AcDbLine
 10
31.38827690462377
 20
77.8544145925415
 30
0.0
 11
20.38827690462384
 21
77.8544145925415
 31
0.0
  0
LINE
  5
536
330
533
100
AcDbEntity
  8
Bemaßungen_TC_020513_DIN_
  6
Continuous
 62
     7
100
AcDbLine
 10
40.38827690462377
 20
158.8544145925416
 30
0.0
 11
20.38827690462384
 21
158.8544145925416
 31
0.0
  0
SOLID
  5
537
330
533
100
AcDbEntity
  8
Bemaßungen_TC_020513_DIN_
 62
     7
100
AcDbTrace
 10
22.05914566065535
 20
80.3544145925415
 30
0.0
 11
22.71740814859233
 21
80.3544145925415
 31
0.0
 12
22.38827690462384
 22
77.8544145925415
 32
0.0
 13
22.38827690462384
 23
77.8544145925415
 33
0.0
  0
SOLID
  5
538
330
533
100
AcDbEntity
  8
Bemaßungen_TC_020513_DIN_
 62
     7
100
AcDbTrace
 10
22.71740814859233
 20
156.3544145925416
 30
0.0
 11
22.05914566065535
 21
156.3544145925416
 31
0.0
 12
22.38827690462384
 22
158.8544145925416
 32
0.0
 13
22.38827690462384
 23
158.8544145925416
 33
0.0
  0
MTEXT
  5
539
330
533
100
AcDbEntity
  8
Bemaßungen_TC_020513_DIN_
 62
     7
100
AcDbMText
 10
19.39859434878093
 20
117.7813632055474
 30
0.0
 40
3.5
 41
0.0
 71
     7
 72
     1
  1
81
  7
CONVERTER_13
 11
0.0
 21
1.0
 31
0.0
 73
     1
 44
0.45454545454545
  0
ENDBLK
  5
53B
330
533
100
AcDbEntity
  8
0
100
AcDbBlockEnd
  0
BLOCK
  5
545
330
53E
100
AcDbEntity
  8
0
100
AcDbBlockBegin
  2
*D5
 70
     1
 10
0.0
 20
0.0
 30
0.0
  3
*D5
  1

  0
LINE
  5
53F
330
53E
100
AcDbEntity
  8
Bemaßungen_TC_020513_DIN_
  6
Continuous
 62
     7
100
AcDbLine
 10
203.2382561885059
 20
168.8544145925421
 30
0.0
 11
277.6722061602287
 21
168.8544145925421
 31
0.0
  0
LINE
  5
540
330
53E
100
AcDbEntity
  8
Bemaßungen_TC_020513_DIN_
  6
Continuous
 62
     7
100
AcDbLine
 10
277.6722061602287
 20
123.8544145925421
 30
0.0
 11
277.6722061602287
 21
170.8544145925421
 31
0.0
  0
LINE
  5
541
330
53E
100
AcDbEntity
  8
Bemaßungen_TC_020513_DIN_
  6
Continuous
 62
     7
100
AcDbLine
 10
203.2382561885059
 20
78.85441459254211
 30
0.0
 11
203.2382561885059
 21
170.8544145925421
 31
0.0
  0
SOLID
  5
542
330
53E
100
AcDbEntity
  8
Bemaßungen_TC_020513_DIN_
 62
     7
100
AcDbTrace
 10
275.1722061602287
 20
168.5252833485736
 30
0.0
 11
275.1722061602287
 21
169.1835458365106
 31
0.0
 12
277.6722061602287
 22
168.8544145925421
 32
0.0
 13
277.6722061602287
 23
168.8544145925421
 33
0.0
  0
SOLID
  5
543
330
53E
100
AcDbEntity
  8
Bemaßungen_TC_020513_DIN_
 62
     7
100
AcDbTrace
 10
205.7382561885059
 20
169.1835458365106
 30
0.0
 11
205.7382561885059
 21
168.5252833485736
 31
0.0
 12
203.2382561885059
 22
168.8544145925421
 32
0.0
 13
203.2382561885059
 23
168.8544145925421
 33
0.0
  0
MTEXT
  5
544
330
53E
100
AcDbEntity
  8
Bemaßungen_TC_020513_DIN_
 62
     7
100
AcDbMText
 10
239.3815635981963
 20
171.7613797666715
 30
0.0
 40
3.5
 41
0.0
 71
     7
 72
     1
  1
74
  7
CONVERTER_13
 11
0.9999999999970619
 21
2.424068405545306E-6
 31
0.0
 73
     1
 44
0.45454545454545
  0
ENDBLK
  5
546
330
53E
100
AcDbEntity
  8
0
100
AcDbBlockEnd
  0
BLOCK
  5
550
330
549
100
AcDbEntity
  8
0
100
AcDbBlockBegin
  2
*D6
 70
     1
 10
0.0
 20
0.0
 30
0.0
  3
*D6
  1

  0
LINE
  5
54A
330
549
100
AcDbEntity
  8
Bemaßungen_TC_020513_DIN_
  6
Continuous
 62
     7
100
AcDbLine
 10
144.3882769046239
 20
168.8544145925412
 30
0.0
 11
37.38827690462389
 21
168.8544145925412
 31
0.0
  0
LINE
  5
54B
330
549
100
AcDbEntity
  8
Bemaßungen_TC_020513_DIN_
  6
Continuous
 62
     7
100
AcDbLine
 10
37.38827690462389
 20
134.8544145925412
 30
0.0
 11
37.38827690462389
 21
170.8544145925412
 31
0.0
  0
LINE
  5
54C
330
549
100
AcDbEntity
  8
Bemaßungen_TC_020513_DIN_
  6
Continuous
 62
     7
100
AcDbLine
 10
144.3882769046239
 20
134.8544145925412
 30
0.0
 11
144.3882769046239
 21
170.8544145925412
 31
0.0
  0
SOLID
  5
54D
330
549
100
AcDbEntity
  8
Bemaßungen_TC_020513_DIN_
 62
     7
100
AcDbTrace
 10
39.88827690462389
 20
169.1835458365097
 30
0.0
 11
39.88827690462389
 21
168.5252833485727
 31
0.0
 12
37.38827690462389
 22
168.8544145925412
 32
0.0
 13
37.38827690462389
 23
168.8544145925412
 33
0.0
  0
SOLID
  5
54E
330
549
100
AcDbEntity
  8
Bemaßungen_TC_020513_DIN_
 62
     7
100
AcDbTrace
 10
141.8882769046239
 20
168.5252833485727
 30
0.0
 11
141.8882769046239
 21
169.1835458365097
 31
0.0
 12
144.3882769046239
 22
168.8544145925412
 32
0.0
 13
144.3882769046239
 23
168.8544145925412
 33
0.0
  0
MTEXT
  5
54F
330
549
100
AcDbEntity
  8
Bemaßungen_TC_020513_DIN_
 62
     7
100
AcDbMText
 10
89.27487081094492
 20
171.8440971483842
 30
0.0
 40
3.5
 41
0.0
 71
     7
 72
     1
  1
107
  7
CONVERTER_13
 11
0.9999999999970619
 21
2.424068405545306E-6
 31
0.0
 73
     1
 44
0.45454545454545
  0
ENDBLK
  5
551
330
549
100
AcDbEntity
  8
0
100
AcDbBlockEnd
  0
BLOCK
  5
55B
330
554
100
AcDbEntity
  8
0
100
AcDbBlockBegin
  2
*D7
 70
     1
 10
0.0
 20
0.0
 30
0.0
  3
*D7
  1

  0
LINE
  5
555
330
554
100
AcDbEntity
  8
Bemaßungen_TC_020513_DIN_
  6
Continuous
 62
     7
100
AcDbLine
 10
181.2382561885059
 20
140.8544145925417
 30
0.0
 11
181.2382561885059
 21
77.85441459254181
 31
0.0
  0
LINE
  5
556
330
554
100
AcDbEntity
  8
Bemaßungen_TC_020513_DIN_
  6
Continuous
 62
     7
100
AcDbLine
 10
202.2382561885059
 20
77.85441459254181
 30
0.0
 11
179.2382561885059
 21
77.85441459254181
 31
0.0
  0
LINE
  5
557
330
554
100
AcDbEntity
  8
Bemaßungen_TC_020513_DIN_
  6
Continuous
 62
     7
100
AcDbLine
 10
211.5882561885103
 20
140.8544145925417
 30
0.0
 11
179.2382561885059
 21
140.8544145925417
 31
0.0
  0
SOLID
  5
558
330
554
100
AcDbEntity
  8
Bemaßungen_TC_020513_DIN_
 62
     7
100
AcDbTrace
 10
180.9091249445374
 20
80.35441459254181
 30
0.0
 11
181.5673874324744
 21
80.35441459254181
 31
0.0
 12
181.2382561885059
 22
77.85441459254181
 32
0.0
 13
181.2382561885059
 23
77.85441459254181
 33
0.0
  0
SOLID
  5
559
330
554
100
AcDbEntity
  8
Bemaßungen_TC_020513_DIN_
 62
     7
100
AcDbTrace
 10
181.5673874324744
 20
138.3544145925417
 30
0.0
 11
180.9091249445374
 21
138.3544145925417
 31
0.0
 12
181.2382561885059
 22
140.8544145925417
 32
0.0
 13
181.2382561885059
 23
140.8544145925417
 33
0.0
  0
MTEXT
  5
55A
330
554
100
AcDbEntity
  8
Bemaßungen_TC_020513_DIN_
 62
     7
100
AcDbMText
 10
178.2461861838226
 20
108.2497101814458
 30
0.0
 40
3.5
 41
0.0
 71
     7
 72
     1
  1
63
  7
CONVERTER_13
 11
0.0
 21
1.0
 31
0.0
 73
     1
 44
0.45454545454545
  0
ENDBLK
  5
55C
330
554
100
AcDbEntity
  8
0
100
AcDbBlockEnd
  0
BLOCK
  5
566
330
55F
100
AcDbEntity
  8
0
100
AcDbBlockBegin
  2
*D8
 70
     1
 10
0.0
 20
0.0
 30
0.0
  3
*D8
  1

  0
LINE
  5
560
330
55F
100
AcDbEntity
  8
Bemaßungen_TC_020513_DIN_
  6
Continuous
 62
     7
100
AcDbLine
 10
193.2382561885056
 20
72.85441459254166
 30
0.0
 11
193.2382561885056
 21
86.85441459254166
 31
0.0
  0
LINE
  5
561
330
55F
100
AcDbEntity
  8
Bemaßungen_TC_020513_DIN_
  6
Continuous
 62
     7
100
AcDbLine
 10
202.2382561885056
 20
81.85441459254166
 30
0.0
 11
191.2382561885056
 21
81.85441459254166
 31
0.0
  0
LINE
  5
562
330
55F
100
AcDbEntity
  8
Bemaßungen_TC_020513_DIN_
  6
Continuous
 62
     7
100
AcDbLine
 10
202.2382561885056
 20
77.85441459254166
 30
0.0
 11
191.2382561885056
 21
77.85441459254166
 31
0.0
  0
SOLID
  5
563
330
55F
100
AcDbEntity
  8
Bemaßungen_TC_020513_DIN_
 62
     7
100
AcDbTrace
 10
192.9091249445371
 20
84.35441459254166
 30
0.0
 11
193.5673874324741
 21
84.35441459254166
 31
0.0
 12
193.2382561885056
 22
81.85441459254166
 32
0.0
 13
193.2382561885056
 23
81.85441459254166
 33
0.0
  0
SOLID
  5
564
330
55F
100
AcDbEntity
  8
Bemaßungen_TC_020513_DIN_
 62
     7
100
AcDbTrace
 10
193.5673874324741
 20
75.35441459254166
 30
0.0
 11
192.9091249445371
 21
75.35441459254166
 31
0.0
 12
193.2382561885056
 22
77.85441459254166
 32
0.0
 13
193.2382561885056
 23
77.85441459254166
 33
0.0
  0
MTEXT
  5
565
330
55F
100
AcDbEntity
  8
Bemaßungen_TC_020513_DIN_
 62
     7
100
AcDbMText
 10
190.3312910143761
 20
79.37897803046802
 30
0.0
 40
3.5
 41
0.0
 71
     7
 72
     1
  1
4
  7
CONVERTER_13
 11
0.0
 21
1.0
 31
0.0
 73
     1
 44
0.45454545454545
  0
ENDBLK
  5
567
330
55F
100
AcDbEntity
  8
0
100
AcDbBlockEnd
  0
BLOCK
  5
571
330
56A
100
AcDbEntity
  8
0
100
AcDbBlockBegin
  2
*D9
 70
     1
 10
0.0
 20
0.0
 30
0.0
  3
*D9
  1

  0
LINE
  5
56B
330
56A
100
AcDbEntity
  8
Bemaßungen_TC_020513_DIN_
  6
Continuous
 62
     7
100
AcDbLine
 10
254.2382561885081
 20
63.85441459254166
 30
0.0
 11
209.2382561885081
 21
63.85441459254166
 31
0.0
  0
LINE
  5
56C
330
56A
100
AcDbEntity
  8
Bemaßungen_TC_020513_DIN_
  6
Continuous
 62
     7
100
AcDbLine
 10
209.2382561885081
 20
78.85441459254172
 30
0.0
 11
209.2382561885081
 21
61.85441459254166
 31
0.0
  0
LINE
  5
56D
330
56A
100
AcDbEntity
  8
Bemaßungen_TC_020513_DIN_
  6
Continuous
 62
     7
100
AcDbLine
 10
254.2382561885081
 20
78.85441459254172
 30
0.0
 11
254.2382561885081
 21
61.85441459254166
 31
0.0
  0
SOLID
  5
56E
330
56A
100
AcDbEntity
  8
Bemaßungen_TC_020513_DIN_
 62
     7
100
AcDbTrace
 10
211.7382561885081
 20
64.18354583651015
 30
0.0
 11
211.7382561885081
 21
63.52528334857317
 31
0.0
 12
209.2382561885081
 22
63.85441459254166
 32
0.0
 13
209.2382561885081
 23
63.85441459254166
 33
0.0
  0
SOLID
  5
56F
330
56A
100
AcDbEntity
  8
Bemaßungen_TC_020513_DIN_
 62
     7
100
AcDbTrace
 10
251.7382561885081
 20
63.52528334857317
 30
0.0
 11
251.7382561885081
 21
64.18354583651015
 31
0.0
 12
254.2382561885081
 22
63.85441459254166
 32
0.0
 13
254.2382561885081
 23
63.85441459254166
 33
0.0
  0
MTEXT
  5
570
330
56A
100
AcDbEntity
  8
Bemaßungen_TC_020513_DIN_
 62
     7
100
AcDbMText
 10
230.5595408633603
 20
66.83847892300395
 30
0.0
 40
3.5
 41
0.0
 71
     7
 72
     1
  1
45
  7
CONVERTER_13
 11
0.9999999999970619
 21
2.424068405545306E-6
 31
0.0
 73
     1
 44
0.45454545454545
  0
ENDBLK
  5
572
330
56A
100
AcDbEntity
  8
0
100
AcDbBlockEnd
  0
BLOCK
  5
57C
330
575
100
AcDbEntity
  8
0
100
AcDbBlockBegin
  2
*D10
 70
     1
 10
0.0
 20
0.0
 30
0.0
  3
*D10
  1

  0
LINE
  5
576
330
575
100
AcDbEntity
  8
Bemaßungen_TC_020513_DIN_
  6
Continuous
 62
     7
100
AcDbLine
 10
260.2382561885057
 20
55.85441459254165
 30
0.0
 11
203.2382561885057
 21
55.85441459254165
 31
0.0
  0
LINE
  5
577
330
575
100
AcDbEntity
  8
Bemaßungen_TC_020513_DIN_
  6
Continuous
 62
     7
100
AcDbLine
 10
203.2382561885057
 20
76.85441459254162
 30
0.0
 11
203.2382561885057
 21
53.85441459254165
 31
0.0
  0
LINE
  5
578
330
575
100
AcDbEntity
  8
Bemaßungen_TC_020513_DIN_
  6
Continuous
 62
     7
100
AcDbLine
 10
260.2382561885057
 20
76.85441459254162
 30
0.0
 11
260.2382561885057
 21
53.85441459254165
 31
0.0
  0
SOLID
  5
579
330
575
100
AcDbEntity
  8
Bemaßungen_TC_020513_DIN_
 62
     7
100
AcDbTrace
 10
205.7382561885057
 20
56.18354583651014
 30
0.0
 11
205.7382561885057
 21
55.52528334857316
 31
0.0
 12
203.2382561885057
 22
55.85441459254165
 32
0.0
 13
203.2382561885057
 23
55.85441459254165
 33
0.0
  0
SOLID
  5
57A
330
575
100
AcDbEntity
  8
Bemaßungen_TC_020513_DIN_
 62
     7
100
AcDbTrace
 10
257.7382561885057
 20
55.52528334857316
 30
0.0
 11
257.7382561885057
 21
56.18354583651014
 31
0.0
 12
260.2382561885057
 22
55.85441459254165
 32
0.0
 13
260.2382561885057
 23
55.85441459254165
 33
0.0
  0
MTEXT
  5
57B
330
575
100
AcDbEntity
  8
Bemaßungen_TC_020513_DIN_
 62
     7
100
AcDbMText
 10
230.6431015727713
 20
58.84718539066564
 30
0.0
 40
3.5
 41
0.0
 71
     7
 72
     1
  1
57
  7
CONVERTER_13
 11
0.9999999999970619
 21
2.424068405545306E-6
 31
0.0
 73
     1
 44
0.45454545454545
  0
ENDBLK
  5
57D
330
575
100
AcDbEntity
  8
0
100
AcDbBlockEnd
  0
BLOCK
  5
587
330
580
100
AcDbEntity
  8
0
100
AcDbBlockBegin
  2
*D11
 70
     1
 10
0.0
 20
0.0
 30
0.0
  3
*D11
  1

  0
LINE
  5
581
330
580
100
AcDbEntity
  8
Bemaßungen_TC_020513_DIN_
  6
Continuous
 62
     7
100
AcDbLine
 10
143.3882769046238
 20
63.85441459254167
 30
0.0
 11
38.38827690462385
 21
63.85441459254167
 31
0.0
  0
LINE
  5
582
330
580
100
AcDbEntity
  8
Bemaßungen_TC_020513_DIN_
  6
Continuous
 62
     7
100
AcDbLine
 10
38.38827690462385
 20
78.85441459254172
 30
0.0
 11
38.38827690462385
 21
61.85441459254167
 31
0.0
  0
LINE
  5
583
330
580
100
AcDbEntity
  8
Bemaßungen_TC_020513_DIN_
  6
Continuous
 62
     7
100
AcDbLine
 10
143.3882769046238
 20
78.85441459254172
 30
0.0
 11
143.3882769046238
 21
61.85441459254167
 31
0.0
  0
SOLID
  5
584
330
580
100
AcDbEntity
  8
Bemaßungen_TC_020513_DIN_
 62
     7
100
AcDbTrace
 10
40.88827690462385
 20
64.18354583651016
 30
0.0
 11
40.88827690462385
 21
63.52528334857318
 31
0.0
 12
38.38827690462385
 22
63.85441459254167
 32
0.0
 13
38.38827690462385
 23
63.85441459254167
 33
0.0
  0
SOLID
  5
585
330
580
100
AcDbEntity
  8
Bemaßungen_TC_020513_DIN_
 62
     7
100
AcDbTrace
 10
140.8882769046238
 20
63.52528334857318
 30
0.0
 11
140.8882769046238
 21
64.18354583651016
 31
0.0
 12
143.3882769046238
 22
63.85441459254167
 32
0.0
 13
143.3882769046238
 23
63.85441459254167
 33
0.0
  0
MTEXT
  5
586
330
580
100
AcDbEntity
  8
Bemaßungen_TC_020513_DIN_
 62
     7
100
AcDbMText
 10
89.19923984232278
 20
66.84409714838455
 30
0.0
 40
3.5
 41
0.0
 71
     7
 72
     1
  1
105
  7
CONVERTER_13
 11
0.9999999999970619
 21
2.424068405545306E-6
 31
0.0
 73
     1
 44
0.45454545454545
  0
ENDBLK
  5
588
330
580
100
AcDbEntity
  8
0
100
AcDbBlockEnd
  0
BLOCK
  5
592
330
58B
100
AcDbEntity
  8
0
100
AcDbBlockBegin
  2
*D12
 70
     1
 10
0.0
 20
0.0
 30
0.0
  3
*D12
  1

  0
LINE
  5
58C
330
58B
100
AcDbEntity
  8
Bemaßungen_TC_020513_DIN_
  6
Continuous
 62
     7
100
AcDbLine
 10
149.3882769046239
 20
55.85240892598154
 30
0.0
 11
32.38827690462389
 21
55.85240892598154
 31
0.0
  0
LINE
  5
58D
330
58B
100
AcDbEntity
  8
Bemaßungen_TC_020513_DIN_
  6
Continuous
 62
     7
100
AcDbLine
 10
32.38827690462389
 20
78.85441459254173
 30
0.0
 11
32.38827690462389
 21
53.85240892598154
 31
0.0
  0
LINE
  5
58E
330
58B
100
AcDbEntity
  8
Bemaßungen_TC_020513_DIN_
  6
Continuous
 62
     7
100
AcDbLine
 10
149.3882769046239
 20
78.85441459254173
 30
0.0
 11
149.3882769046239
 21
53.85240892598154
 31
0.0
  0
SOLID
  5
58F
330
58B
100
AcDbEntity
  8
Bemaßungen_TC_020513_DIN_
 62
     7
100
AcDbTrace
 10
34.88827690462389
 20
56.18154016995003
 30
0.0
 11
34.88827690462389
 21
55.52327768201305
 31
0.0
 12
32.38827690462389
 22
55.85240892598154
 32
0.0
 13
32.38827690462389
 23
55.85240892598154
 33
0.0
  0
SOLID
  5
590
330
58B
100
AcDbEntity
  8
Bemaßungen_TC_020513_DIN_
 62
     7
100
AcDbTrace
 10
146.8882769046239
 20
55.52327768201305
 30
0.0
 11
146.8882769046239
 21
56.18154016995003
 31
0.0
 12
149.3882769046239
 22
55.85240892598154
 32
0.0
 13
149.3882769046239
 23
55.85240892598154
 33
0.0
  0
MTEXT
  5
591
330
58B
100
AcDbEntity
  8
Bemaßungen_TC_020513_DIN_
 62
     7
100
AcDbMText
 10
89.27487081094492
 20
58.76499232549148
 30
0.0
 40
3.5
 41
0.0
 71
     7
 72
     1
  1
117
  7
CONVERTER_13
 11
0.9999999999970619
 21
2.424068405545306E-6
 31
0.0
 73
     1
 44
0.45454545454545
  0
ENDBLK
  5
593
330
58B
100
AcDbEntity
  8
0
100
AcDbBlockEnd
  0
ENDSEC
  0
SECTION
  2
ENTITIES
  0
INSERT
  5
56
330
1F
100
AcDbEntity
  8
0
100
AcDbBlockReference
  2
A4_oriz
 10
297.0000000000001
 20
0.0
 30
0.0
  0
POINT
  5
B2
330
1F
100
AcDbEntity
  8
Bemaßungen_TC_020513_DIN_
 62
     7
100
AcDbPoint
 10
149.3882769046236
 20
111.7964145925411
 30
0.0
  0
POINT
  5
B3
330
1F
100
AcDbEntity
  8
Bemaßungen_TC_020513_DIN_
 62
     7
100
AcDbPoint
 10
149.3882769046236
 20
82.69241459254171
 30
0.0
  0
POINT
  5
B4
330
1F
100
AcDbEntity
  8
Bemaßungen_TC_020513_DIN_
 62
     7
100
AcDbPoint
 10
32.38827690462387
 20
77.85441459254172
 30
0.0
  0
POINT
  5
B5
330
1F
100
AcDbEntity
  8
Bemaßungen_TC_020513_DIN_
 62
     7
100
AcDbPoint
 10
41.38827690462387
 20
158.8544145925421
 30
0.0
  0
POINT
  5
B6
330
1F
100
AcDbEntity
  8
Bemaßungen_TC_020513_DIN_
 62
     7
100
AcDbPoint
 10
277.6722061602285
 20
122.8544145925421
 30
0.0
  0
POINT
  5
B7
330
1F
100
AcDbEntity
  8
Bemaßungen_TC_020513_DIN_
 62
     7
100
AcDbPoint
 10
203.2382561885056
 20
77.85441459254172
 30
0.0
  0
POINT
  5
B8
330
1F
100
AcDbEntity
  8
Bemaßungen_TC_020513_DIN_
 62
     7
100
AcDbPoint
 10
37.38827690462387
 20
133.8544145925421
 30
0.0
  0
POINT
  5
B9
330
1F
100
AcDbEntity
  8
Bemaßungen_TC_020513_DIN_
 62
     7
100
AcDbPoint
 10
144.3882769046236
 20
133.8544145925421
 30
0.0
  0
POINT
  5
BA
330
1F
100
AcDbEntity
  8
Bemaßungen_TC_020513_DIN_
 62
     7
100
AcDbPoint
 10
203.2382561885056
 20
77.85441459254172
 30
0.0
  0
POINT
  5
BB
330
1F
100
AcDbEntity
  8
Bemaßungen_TC_020513_DIN_
 62
     7
100
AcDbPoint
 10
212.5882561885106
 20
140.8544145925421
 30
0.0
  0
POINT
  5
BC
330
1F
100
AcDbEntity
  8
Bemaßungen_TC_020513_DIN_
 62
     7
100
AcDbPoint
 10
203.2382561885056
 20
81.85441459254172
 30
0.0
  0
POINT
  5
BD
330
1F
100
AcDbEntity
  8
Bemaßungen_TC_020513_DIN_
 62
     7
100
AcDbPoint
 10
203.2382561885056
 20
77.85441459254172
 30
0.0
  0
POINT
  5
BE
330
1F
100
AcDbEntity
  8
Bemaßungen_TC_020513_DIN_
 62
     7
100
AcDbPoint
 10
209.2382561885075
 20
79.85441459254172
 30
0.0
  0
POINT
  5
BF
330
1F
100
AcDbEntity
  8
Bemaßungen_TC_020513_DIN_
 62
     7
100
AcDbPoint
 10
254.2382561885075
 20
79.85441459254172
 30
0.0
  0
POINT
  5
C0
330
1F
100
AcDbEntity
  8
Bemaßungen_TC_020513_DIN_
 62
     7
100
AcDbPoint
 10
203.2382561885056
 20
77.85441459254172
 30
0.0
  0
POINT
  5
C1
330
1F
100
AcDbEntity
  8
Bemaßungen_TC_020513_DIN_
 62
     7
100
AcDbPoint
 10
260.2382561885055
 20
77.85441459254172
 30
0.0
  0
POINT
  5
C2
330
1F
100
AcDbEntity
  8
Bemaßungen_TC_020513_DIN_
 62
     7
100
AcDbPoint
 10
38.38827690462387
 20
79.85441459254172
 30
0.0
  0
POINT
  5
C3
330
1F
100
AcDbEntity
  8
Bemaßungen_TC_020513_DIN_
 62
     7
100
AcDbPoint
 10
143.3882769046236
 20
79.85441459254172
 30
0.0
  0
POINT
  5
C4
330
1F
100
AcDbEntity
  8
Bemaßungen_TC_020513_DIN_
 62
     7
100
AcDbPoint
 10
32.38827690462387
 20
79.85441459254172
 30
0.0
  0
POINT
  5
C5
330
1F
100
AcDbEntity
  8
Bemaßungen_TC_020513_DIN_
 62
     7
100
AcDbPoint
 10
149.3882769046236
 20
79.85441459254172
 30
0.0
  0
LINE
  5
C6
330
1F
100
AcDbEntity
  8
Sichtbare_Kanten_TC_020513_DIN_
  6
Continuous
 62
     7
100
AcDbLine
 10
93.88827690462386
 20
144.1044145925421
 30
0.0
 11
93.13827690462386
 21
144.1044145925421
 31
0.0
  0
LINE
  5
C7
330
1F
100
AcDbEntity
  8
Sichtbare_Kanten_TC_020513_DIN_
  6
Continuous
 62
     7
100
AcDbLine
 10
93.13827690462386
 20
144.1044145925421
 30
0.0
 11
93.13827690462386
 21
143.0569785171421
 31
0.0
  0
LINE
  5
C8
330
1F
100
AcDbEntity
  8
Sichtbare_Kanten_TC_020513_DIN_
  6
Continuous
 62
     7
100
AcDbLine
 10
93.13827690462386
 20
143.0569785171421
 30
0.0
 11
93.76334629125148
 21
143.4175954709651
 31
0.0
  0
LINE
  5
C9
330
1F
100
AcDbEntity
  8
Sichtbare_Kanten_TC_020513_DIN_
  6
Continuous
 62
     7
100
AcDbLine
 10
94.01320751799625
 20
142.9845026779411
 30
0.0
 11
93.01320751799625
 21
142.4075796010181
 31
0.0
  0
LINE
  5
CA
330
1F
100
AcDbEntity
  8
Sichtbare_Kanten_TC_020513_DIN_
  6
Continuous
 62
     7
100
AcDbLine
 10
92.63827690462386
 20
142.6241259975301
 30
0.0
 11
92.63827690462386
 21
146.0847031875531
 31
0.0
  0
LINE
  5
CB
330
1F
100
AcDbEntity
  8
Sichtbare_Kanten_TC_020513_DIN_
  6
Continuous
 62
     7
100
AcDbLine
 10
93.13827690462386
 20
144.6044145925421
 30
0.0
 11
93.88827690462386
 21
144.6044145925421
 31
0.0
  0
LINE
  5
CC
330
1F
100
AcDbEntity
  8
Sichtbare_Kanten_TC_020513_DIN_
  6
Continuous
 62
     7
100
AcDbLine
 10
93.13827690462386
 20
145.6518506679411
 30
0.0
 11
93.13827690462386
 21
144.6044145925421
 31
0.0
  0
LINE
  5
CD
330
1F
100
AcDbEntity
  8
Sichtbare_Kanten_TC_020513_DIN_
  6
Continuous
 62
     7
100
AcDbLine
 10
93.76334629125148
 20
145.2912337141181
 30
0.0
 11
93.13827690462386
 21
145.6518506679411
 31
0.0
  0
LINE
  5
CE
330
1F
100
AcDbEntity
  8
Sichtbare_Kanten_TC_020513_DIN_
  6
Continuous
 62
     7
100
AcDbLine
 10
93.01320751799625
 20
146.3012495840651
 30
0.0
 11
94.01320751799625
 21
145.7243265071421
 31
0.0
  0
LINE
  5
CF
330
1F
100
AcDbEntity
  8
Sichtbare_Kanten_TC_020513_DIN_
  6
Continuous
 62
     7
100
AcDbLine
 10
87.58827690462385
 20
143.2298952283001
 30
0.0
 11
87.58827690462385
 21
145.4789339567841
 31
0.0
  0
LINE
  5
D0
330
1F
100
AcDbEntity
  8
Sichtbare_Kanten_TC_020513_DIN_
  6
Continuous
 62
     7
100
AcDbLine
 10
88.08827690462385
 20
145.4789339567841
 30
0.0
 11
88.08827690462385
 21
143.2298952283001
 31
0.0
  0
LINE
  5
D1
330
1F
100
AcDbEntity
  8
Sichtbare_Kanten_TC_020513_DIN_
  6
Continuous
 62
     7
100
AcDbLine
 10
96.88799920396355
 20
144.3544145925421
 30
0.0
 11
90.88827690462386
 21
147.8157928421611
 31
0.0
  0
LINE
  5
D2
330
1F
100
AcDbEntity
  8
Sichtbare_Kanten_TC_020513_DIN_
  6
Continuous
 62
     7
100
AcDbLine
 10
90.88827690462386
 20
147.8157928421611
 30
0.0
 11
84.88855460528396
 21
144.3544145925421
 31
0.0
  0
LINE
  5
D3
330
1F
100
AcDbEntity
  8
Sichtbare_Kanten_TC_020513_DIN_
  6
Continuous
 62
     7
100
AcDbLine
 10
90.88827690462386
 20
148.1044145925421
 30
0.0
 11
97.38827690462358
 21
144.3544145925421
 31
0.0
  0
LINE
  5
D4
330
1F
100
AcDbEntity
  8
Sichtbare_Kanten_TC_020513_DIN_
  6
Continuous
 62
     7
100
AcDbLine
 10
97.38827690462358
 20
144.3544145925421
 30
0.0
 11
90.88827690462386
 21
140.6044145925421
 31
0.0
  0
LINE
  5
D5
330
1F
100
AcDbEntity
  8
Sichtbare_Kanten_TC_020513_DIN_
  6
Continuous
 62
     7
100
AcDbLine
 10
84.88855460528396
 20
144.3544145925421
 30
0.0
 11
90.88827690462386
 21
140.8930363429221
 31
0.0
  0
LINE
  5
D6
330
1F
100
AcDbEntity
  8
Sichtbare_Kanten_TC_020513_DIN_
  6
Continuous
 62
     7
100
AcDbLine
 10
90.88827690462386
 20
140.8930363429221
 30
0.0
 11
96.88799920396355
 21
144.3544145925421
 31
0.0
  0
LINE
  5
D7
330
1F
100
AcDbEntity
  8
Sichtbare_Kanten_TC_020513_DIN_
  6
Continuous
 62
     7
100
AcDbLine
 10
90.88827690462386
 20
140.6044145925421
 30
0.0
 11
84.38827690462386
 21
144.3544145925421
 31
0.0
  0
LINE
  5
D8
330
1F
100
AcDbEntity
  8
Sichtbare_Kanten_TC_020513_DIN_
  6
Continuous
 62
     7
100
AcDbLine
 10
84.38827690462386
 20
144.3544145925421
 30
0.0
 11
90.88827690462386
 21
148.1044145925421
 31
0.0
  0
LINE
  5
D9
330
1F
100
AcDbEntity
  8
Sichtbare_Kanten_TC_020513_DIN_
  6
Continuous
 62
     7
100
AcDbLine
 10
90.76334629125148
 20
141.2537334471721
 30
0.0
 11
88.71334629125147
 21
142.4364257548641
 31
0.0
  0
LINE
  5
DA
330
1F
100
AcDbEntity
  8
Sichtbare_Kanten_TC_020513_DIN_
  6
Continuous
 62
     7
100
AcDbLine
 10
88.58827690462385
 20
142.6529721513761
 30
0.0
 11
88.58827690462385
 21
146.0558570337071
 31
0.0
  0
LINE
  5
DB
330
1F
100
AcDbEntity
  8
Sichtbare_Kanten_TC_020513_DIN_
  6
Continuous
 62
     7
100
AcDbLine
 10
89.08827690462385
 20
142.7973631325261
 30
0.0
 11
91.01320751799625
 21
141.6868262401961
 31
0.0
  0
LINE
  5
DC
330
1F
100
AcDbEntity
  8
Sichtbare_Kanten_TC_020513_DIN_
  6
Continuous
 62
     7
100
AcDbLine
 10
89.08827690462385
 20
146.0558570337071
 30
0.0
 11
89.08827690462385
 21
142.7973631325261
 31
0.0
  0
LINE
  5
DD
330
1F
100
AcDbEntity
  8
Sichtbare_Kanten_TC_020513_DIN_
  6
Continuous
 62
     7
100
AcDbLine
 10
90.09076281095088
 20
146.8082531983561
 30
0.0
 11
90.88827690462386
 21
145.7069182676351
 31
0.0
  0
LINE
  5
DE
330
1F
100
AcDbEntity
  8
Sichtbare_Kanten_TC_020513_DIN_
  6
Continuous
 62
     7
100
AcDbLine
 10
90.88827690462386
 20
145.7069182676351
 30
0.0
 11
91.68579099829685
 21
146.8082531983561
 31
0.0
  0
LINE
  5
DF
330
1F
100
AcDbEntity
  8
Sichtbare_Kanten_TC_020513_DIN_
  6
Continuous
 62
     7
100
AcDbLine
 10
92.13827690462386
 20
146.6616262644761
 30
0.0
 11
92.13827690462386
 21
142.0472029206071
 31
0.0
  0
LINE
  5
E0
330
1F
100
AcDbEntity
  8
Sichtbare_Kanten_TC_020513_DIN_
  6
Continuous
 62
     7
100
AcDbLine
 10
91.63827690462386
 20
142.0472029206071
 30
0.0
 11
91.63827690462386
 21
145.8901344683321
 31
0.0
  0
LINE
  5
E1
330
1F
100
AcDbEntity
  8
Sichtbare_Kanten_TC_020513_DIN_
  6
Continuous
 62
     7
100
AcDbLine
 10
91.63827690462386
 20
145.8901344683321
 30
0.0
 11
90.88827690462386
 21
144.8544145925421
 31
0.0
  0
LINE
  5
E2
330
1F
100
AcDbEntity
  8
Sichtbare_Kanten_TC_020513_DIN_
  6
Continuous
 62
     7
100
AcDbLine
 10
89.63827690462386
 20
143.2298952283001
 30
0.0
 11
89.63827690462386
 21
146.6616262644761
 31
0.0
  0
LINE
  5
E3
330
1F
100
AcDbEntity
  8
Sichtbare_Kanten_TC_020513_DIN_
  6
Continuous
 62
     7
100
AcDbLine
 10
90.13827690462386
 20
145.8901344683321
 30
0.0
 11
90.13827690462386
 21
143.2298952283001
 31
0.0
  0
LINE
  5
E4
330
1F
100
AcDbEntity
  8
Sichtbare_Kanten_TC_020513_DIN_
  6
Continuous
 62
     7
100
AcDbLine
 10
90.88827690462386
 20
144.8544145925421
 30
0.0
 11
90.13827690462386
 21
145.8901344683321
 31
0.0
  0
LINE
  5
E5
330
1F
100
AcDbEntity
  8
Sichtbare_Kanten_TC_020513_DIN_
  6
Continuous
 62
     7
100
AcDbLine
 10
127.5117596802025
 20
139.6552228990391
 30
0.0
 11
127.8801581454605
 21
141.0301046888121
 31
0.0
  0
LINE
  5
E6
330
1F
100
AcDbEntity
  8
Sichtbare_Kanten_TC_020513_DIN_
  6
Continuous
 62
     7
100
AcDbLine
 10
128.1216396020336
 20
141.2153999275371
 30
0.0
 11
137.5882769046236
 21
141.2153999275371
 31
0.0
  0
LINE
  5
E7
330
1F
100
AcDbEntity
  8
Sichtbare_Kanten_TC_020513_DIN_
  6
Continuous
 62
     7
100
AcDbLine
 10
137.5882769046236
 20
151.2153999275371
 30
0.0
 11
135.6216396020336
 21
151.2153999275371
 31
0.0
  0
LINE
  5
E8
330
1F
100
AcDbEntity
  8
Sichtbare_Kanten_TC_020513_DIN_
  6
Continuous
 62
     7
100
AcDbLine
 10
134.8555951589145
 20
150.8581875372231
 30
0.0
 11
133.7768694664876
 21
149.5726123178501
 31
0.0
  0
LINE
  5
E9
330
1F
100
AcDbEntity
  8
Sichtbare_Kanten_TC_020513_DIN_
  6
Continuous
 62
     7
100
AcDbLine
 10
133.0108250233686
 20
149.2153999275371
 30
0.0
 11
128.1216396020336
 21
149.2153999275371
 31
0.0
  0
LINE
  5
EA
330
1F
100
AcDbEntity
  8
Sichtbare_Kanten_TC_020513_DIN_
  6
Continuous
 62
     7
100
AcDbLine
 10
126.0104899791066
 20
151.0320372301271
 30
0.0
 11
124.6883548723736
 21
151.0320372301271
 31
0.0
  0
LINE
  5
EB
330
1F
100
AcDbEntity
  8
Sichtbare_Kanten_TC_020513_DIN_
  6
Continuous
 62
     7
100
AcDbLine
 10
122.7565032197956
 20
151.0320372301271
 30
0.0
 11
124.6883548723736
 21
151.0320372301271
 31
0.0
  0
LINE
  5
EC
330
1F
100
AcDbEntity
  8
Sichtbare_Kanten_TC_020513_DIN_
  6
Continuous
 62
     7
100
AcDbLine
 10
125.6475136073476
 20
133.5551861623531
 30
0.0
 11
127.2760592601496
 21
139.0635573326021
 31
0.0
  0
LINE
  5
ED
330
1F
100
AcDbEntity
  8
Sichtbare_Kanten_TC_020513_DIN_
  6
Continuous
 62
     7
100
AcDbLine
 10
124.6883548723736
 20
152.4320372301271
 30
0.0
 11
122.7565032197956
 21
152.4320372301271
 31
0.0
  0
LINE
  5
EE
330
1F
100
AcDbEntity
  8
Sichtbare_Kanten_TC_020513_DIN_
  6
Continuous
 62
     7
100
AcDbLine
 10
124.6883548723736
 20
152.4320372301271
 30
0.0
 11
126.0104899791066
 21
152.4320372301271
 31
0.0
  0
LINE
  5
EF
330
1F
100
AcDbEntity
  8
Sichtbare_Kanten_TC_020513_DIN_
  6
Continuous
 62
     7
100
AcDbLine
 10
140.3882769046236
 20
153.6978758613321
 30
0.0
 11
140.3882769046236
 21
151.6506561767331
 31
0.0
  0
LINE
  5
F0
330
1F
100
AcDbEntity
  8
Sichtbare_Kanten_TC_020513_DIN_
  6
Continuous
 62
     7
100
AcDbLine
 10
138.9882769046236
 20
151.6506561767331
 30
0.0
 11
138.9882769046236
 21
153.6978758613321
 31
0.0
  0
LINE
  5
F1
330
1F
100
AcDbEntity
  8
Sichtbare_Kanten_TC_020513_DIN_
  6
Continuous
 62
     7
100
AcDbLine
 10
140.3882769046236
 20
141.2153999275371
 30
0.0
 11
140.3882769046236
 21
137.2465643556341
 31
0.0
  0
LINE
  5
F2
330
1F
100
AcDbEntity
  8
Sichtbare_Kanten_TC_020513_DIN_
  6
Continuous
 62
     7
100
AcDbLine
 10
140.3882769046236
 20
137.2465643556341
 30
0.0
 11
140.3882769046236
 21
136.8979924639151
 31
0.0
  0
LINE
  5
F3
330
1F
100
AcDbEntity
  8
Sichtbare_Kanten_TC_020513_DIN_
  6
Continuous
 62
     7
100
AcDbLine
 10
140.3882769046236
 20
136.8979924639151
 30
0.0
 11
140.3882769046236
 21
132.0700129078131
 31
0.0
  0
LINE
  5
F4
330
1F
100
AcDbEntity
  8
Sichtbare_Kanten_TC_020513_DIN_
  6
Continuous
 62
     7
100
AcDbLine
 10
140.3882769046236
 20
123.8544145925421
 30
0.0
 11
140.3882769046236
 21
132.0700129078131
 31
0.0
  0
LINE
  5
F5
330
1F
100
AcDbEntity
  8
Sichtbare_Kanten_TC_020513_DIN_
  6
Continuous
 62
     7
100
AcDbLine
 10
140.3882769046236
 20
123.8544145925421
 30
0.0
 11
140.3882769046236
 21
123.7167596775341
 31
0.0
  0
LINE
  5
F6
330
1F
100
AcDbEntity
  8
Sichtbare_Kanten_TC_020513_DIN_
  6
Continuous
 62
     7
100
AcDbLine
 10
140.3882769046236
 20
153.6978758613321
 30
0.0
 11
140.3882769046236
 21
158.8544145925421
 31
0.0
  0
LINE
  5
F7
330
1F
100
AcDbEntity
  8
Sichtbare_Kanten_TC_020513_DIN_
  6
Continuous
 62
     7
100
AcDbLine
 10
138.9882769046236
 20
158.8544145925421
 30
0.0
 11
138.9882769046236
 21
153.6978758613321
 31
0.0
  0
LINE
  5
F8
330
1F
100
AcDbEntity
  8
Sichtbare_Kanten_TC_020513_DIN_
  6
Continuous
 62
     7
100
AcDbLine
 10
138.9882769046236
 20
123.7167596775341
 30
0.0
 11
138.9882769046236
 21
123.8544145925421
 31
0.0
  0
LINE
  5
F9
330
1F
100
AcDbEntity
  8
Sichtbare_Kanten_TC_020513_DIN_
  6
Continuous
 62
     7
100
AcDbLine
 10
138.9882769046236
 20
132.0700129078131
 30
0.0
 11
138.9882769046236
 21
123.8544145925421
 31
0.0
  0
LINE
  5
FA
330
1F
100
AcDbEntity
  8
Sichtbare_Kanten_TC_020513_DIN_
  6
Continuous
 62
     7
100
AcDbLine
 10
138.9882769046236
 20
132.0700129078131
 30
0.0
 11
138.9882769046236
 21
136.8979924639151
 31
0.0
  0
LINE
  5
FB
330
1F
100
AcDbEntity
  8
Sichtbare_Kanten_TC_020513_DIN_
  6
Continuous
 62
     7
100
AcDbLine
 10
138.9882769046236
 20
136.8979924639151
 30
0.0
 11
138.9882769046236
 21
137.2465643556341
 31
0.0
  0
LINE
  5
FC
330
1F
100
AcDbEntity
  8
Sichtbare_Kanten_TC_020513_DIN_
  6
Continuous
 62
     7
100
AcDbLine
 10
138.9882769046236
 20
137.2465643556341
 30
0.0
 11
138.9882769046236
 21
141.2153999275371
 31
0.0
  0
LINE
  5
FD
330
1F
100
AcDbEntity
  8
Sichtbare_Kanten_TC_020513_DIN_
  6
Continuous
 62
     7
100
AcDbLine
 10
140.3882769046236
 20
123.8544145925421
 30
0.0
 11
138.9882769046236
 21
123.8544145925421
 31
0.0
  0
LINE
  5
FE
330
1F
100
AcDbEntity
  8
Sichtbare_Kanten_TC_020513_DIN_
  6
Continuous
 62
     7
100
AcDbLine
 10
140.3882769046236
 20
158.8544145925421
 30
0.0
 11
138.9882769046236
 21
158.8544145925421
 31
0.0
  0
LINE
  5
FF
330
1F
100
AcDbEntity
  8
Sichtbare_Kanten_TC_020513_DIN_
  6
Continuous
 62
     7
100
AcDbLine
 10
140.4882769046236
 20
123.6167596775341
 30
0.0
 11
140.7222654760396
 21
123.6167596775341
 31
0.0
  0
LINE
  5
100
330
1F
100
AcDbEntity
  8
Sichtbare_Kanten_TC_020513_DIN_
  6
Continuous
 62
     7
100
AcDbLine
 10
142.3882769046236
 20
123.6167596775341
 30
0.0
 11
142.9259318196316
 21
123.6167596775341
 31
0.0
  0
LINE
  5
101
330
1F
100
AcDbEntity
  8
Sichtbare_Kanten_TC_020513_DIN_
  6
Continuous
 62
     7
100
AcDbLine
 10
143.4259318196316
 20
123.6167596775341
 30
0.0
 11
142.9259318196316
 21
123.6167596775341
 31
0.0
  0
LINE
  5
102
330
1F
100
AcDbEntity
  8
Sichtbare_Kanten_TC_020513_DIN_
  6
Continuous
 62
     7
100
AcDbLine
 10
142.9259318196316
 20
122.2167596775341
 30
0.0
 11
142.3882769046236
 21
122.2167596775341
 31
0.0
  0
LINE
  5
103
330
1F
100
AcDbEntity
  8
Sichtbare_Kanten_TC_020513_DIN_
  6
Continuous
 62
     7
100
AcDbLine
 10
142.9259318196316
 20
122.2167596775341
 30
0.0
 11
143.4259318196316
 21
122.2167596775341
 31
0.0
  0
LINE
  5
104
330
1F
100
AcDbEntity
  8
Sichtbare_Kanten_TC_020513_DIN_
  6
Continuous
 62
     7
100
AcDbLine
 10
143.4259318196316
 20
123.6167596775341
 30
0.0
 11
143.4259318196316
 21
122.2167596775341
 31
0.0
  0
LINE
  5
105
330
1F
100
AcDbEntity
  8
Sichtbare_Kanten_TC_020513_DIN_
  6
Continuous
 62
     7
100
AcDbLine
 10
127.2760592601496
 20
138.4718917661651
 30
0.0
 11
125.6475136073476
 21
132.9635205959161
 31
0.0
  0
LINE
  5
106
330
1F
100
AcDbEntity
  8
Sichtbare_Kanten_TC_020513_DIN_
  6
Continuous
 62
     7
100
AcDbLine
 10
48.76572878587916
 20
149.2153999275371
 30
0.0
 11
53.65491420721457
 21
149.2153999275371
 31
0.0
  0
LINE
  5
107
330
1F
100
AcDbEntity
  8
Sichtbare_Kanten_TC_020513_DIN_
  6
Continuous
 62
     7
100
AcDbLine
 10
46.92095865033355
 20
150.8581875372231
 30
0.0
 11
47.99968434276019
 21
149.5726123178501
 31
0.0
  0
LINE
  5
108
330
1F
100
AcDbEntity
  8
Sichtbare_Kanten_TC_020513_DIN_
  6
Continuous
 62
     7
100
AcDbLine
 10
44.18827690462388
 20
151.2153999275371
 30
0.0
 11
46.15491420721457
 21
151.2153999275371
 31
0.0
  0
LINE
  5
109
330
1F
100
AcDbEntity
  8
Sichtbare_Kanten_TC_020513_DIN_
  6
Continuous
 62
     7
100
AcDbLine
 10
53.65491420721457
 20
141.2153999275371
 30
0.0
 11
44.18827690462388
 21
141.2153999275371
 31
0.0
  0
LINE
  5
10A
330
1F
100
AcDbEntity
  8
Sichtbare_Kanten_TC_020513_DIN_
  6
Continuous
 62
     7
100
AcDbLine
 10
54.26479412904479
 20
139.6552228990391
 30
0.0
 11
53.89639566378685
 21
141.0301046888121
 31
0.0
  0
LINE
  5
10B
330
1F
100
AcDbEntity
  8
Sichtbare_Kanten_TC_020513_DIN_
  6
Continuous
 62
     7
100
AcDbLine
 10
41.38827690462387
 20
123.8544145925421
 30
0.0
 11
41.38827690462387
 21
123.7167596775341
 31
0.0
  0
LINE
  5
10C
330
1F
100
AcDbEntity
  8
Sichtbare_Kanten_TC_020513_DIN_
  6
Continuous
 62
     7
100
AcDbLine
 10
41.38827690462387
 20
123.8544145925421
 30
0.0
 11
41.38827690462387
 21
132.0700129078131
 31
0.0
  0
LINE
  5
10D
330
1F
100
AcDbEntity
  8
Sichtbare_Kanten_TC_020513_DIN_
  6
Continuous
 62
     7
100
AcDbLine
 10
41.38827690462387
 20
136.8979924639151
 30
0.0
 11
41.38827690462387
 21
132.0700129078131
 31
0.0
  0
LINE
  5
10E
330
1F
100
AcDbEntity
  8
Sichtbare_Kanten_TC_020513_DIN_
  6
Continuous
 62
     7
100
AcDbLine
 10
41.38827690462387
 20
137.2465643556341
 30
0.0
 11
41.38827690462387
 21
136.8979924639151
 31
0.0
  0
LINE
  5
10F
330
1F
100
AcDbEntity
  8
Sichtbare_Kanten_TC_020513_DIN_
  6
Continuous
 62
     7
100
AcDbLine
 10
41.38827690462387
 20
141.2153999275371
 30
0.0
 11
41.38827690462387
 21
137.2465643556341
 31
0.0
  0
LINE
  5
110
330
1F
100
AcDbEntity
  8
Sichtbare_Kanten_TC_020513_DIN_
  6
Continuous
 62
     7
100
AcDbLine
 10
41.38827690462387
 20
153.6978758613321
 30
0.0
 11
41.38827690462387
 21
151.6506561767331
 31
0.0
  0
LINE
  5
111
330
1F
100
AcDbEntity
  8
Sichtbare_Kanten_TC_020513_DIN_
  6
Continuous
 62
     7
100
AcDbLine
 10
41.38827690462387
 20
153.6978758613321
 30
0.0
 11
41.38827690462387
 21
158.8544145925421
 31
0.0
  0
LINE
  5
112
330
1F
100
AcDbEntity
  8
Sichtbare_Kanten_TC_020513_DIN_
  6
Continuous
 62
     7
100
AcDbLine
 10
42.7882769046239
 20
158.8544145925421
 30
0.0
 11
42.7882769046239
 21
153.6978758613321
 31
0.0
  0
LINE
  5
113
330
1F
100
AcDbEntity
  8
Sichtbare_Kanten_TC_020513_DIN_
  6
Continuous
 62
     7
100
AcDbLine
 10
42.7882769046239
 20
151.6506561767331
 30
0.0
 11
42.7882769046239
 21
153.6978758613321
 31
0.0
  0
LINE
  5
114
330
1F
100
AcDbEntity
  8
Sichtbare_Kanten_TC_020513_DIN_
  6
Continuous
 62
     7
100
AcDbLine
 10
42.7882769046239
 20
137.2465643556341
 30
0.0
 11
42.7882769046239
 21
141.2153999275371
 31
0.0
  0
LINE
  5
115
330
1F
100
AcDbEntity
  8
Sichtbare_Kanten_TC_020513_DIN_
  6
Continuous
 62
     7
100
AcDbLine
 10
42.7882769046239
 20
136.8979924639151
 30
0.0
 11
42.7882769046239
 21
137.2465643556341
 31
0.0
  0
LINE
  5
116
330
1F
100
AcDbEntity
  8
Sichtbare_Kanten_TC_020513_DIN_
  6
Continuous
 62
     7
100
AcDbLine
 10
42.7882769046239
 20
132.0700129078131
 30
0.0
 11
42.7882769046239
 21
136.8979924639151
 31
0.0
  0
LINE
  5
117
330
1F
100
AcDbEntity
  8
Sichtbare_Kanten_TC_020513_DIN_
  6
Continuous
 62
     7
100
AcDbLine
 10
42.7882769046239
 20
132.0700129078131
 30
0.0
 11
42.7882769046239
 21
123.8544145925421
 31
0.0
  0
LINE
  5
118
330
1F
100
AcDbEntity
  8
Sichtbare_Kanten_TC_020513_DIN_
  6
Continuous
 62
     7
100
AcDbLine
 10
42.7882769046239
 20
123.7167596775341
 30
0.0
 11
42.7882769046239
 21
123.8544145925421
 31
0.0
  0
LINE
  5
119
330
1F
100
AcDbEntity
  8
Sichtbare_Kanten_TC_020513_DIN_
  6
Continuous
 62
     7
100
AcDbLine
 10
41.38827690462387
 20
123.8544145925421
 30
0.0
 11
42.7882769046239
 21
123.8544145925421
 31
0.0
  0
LINE
  5
11A
330
1F
100
AcDbEntity
  8
Sichtbare_Kanten_TC_020513_DIN_
  6
Continuous
 62
     7
100
AcDbLine
 10
41.38827690462387
 20
158.8544145925421
 30
0.0
 11
42.7882769046239
 21
158.8544145925421
 31
0.0
  0
LINE
  5
11B
330
1F
100
AcDbEntity
  8
Sichtbare_Kanten_TC_020513_DIN_
  6
Continuous
 62
     7
100
AcDbLine
 10
57.08819893687394
 20
152.4320372301271
 30
0.0
 11
59.02005058945218
 21
152.4320372301271
 31
0.0
  0
LINE
  5
11C
330
1F
100
AcDbEntity
  8
Sichtbare_Kanten_TC_020513_DIN_
  6
Continuous
 62
     7
100
AcDbLine
 10
59.02005058945218
 20
151.0320372301271
 30
0.0
 11
57.08819893687394
 21
151.0320372301271
 31
0.0
  0
LINE
  5
11D
330
1F
100
AcDbEntity
  8
Sichtbare_Kanten_TC_020513_DIN_
  6
Continuous
 62
     7
100
AcDbLine
 10
55.76606383014166
 20
151.0320372301271
 30
0.0
 11
57.08819893687394
 21
151.0320372301271
 31
0.0
  0
LINE
  5
11E
330
1F
100
AcDbEntity
  8
Sichtbare_Kanten_TC_020513_DIN_
  6
Continuous
 62
     7
100
AcDbLine
 10
57.08819893687394
 20
152.4320372301271
 30
0.0
 11
55.76606383014166
 21
152.4320372301271
 31
0.0
  0
LINE
  5
11F
330
1F
100
AcDbEntity
  8
Sichtbare_Kanten_TC_020513_DIN_
  6
Continuous
 62
     7
100
AcDbLine
 10
41.2882769046239
 20
123.6167596775341
 30
0.0
 11
41.05428833320809
 21
123.6167596775341
 31
0.0
  0
LINE
  5
120
330
1F
100
AcDbEntity
  8
Sichtbare_Kanten_TC_020513_DIN_
  6
Continuous
 62
     7
100
AcDbLine
 10
39.38827690462387
 20
123.6167596775341
 30
0.0
 11
38.85062198961634
 21
123.6167596775341
 31
0.0
  0
LINE
  5
121
330
1F
100
AcDbEntity
  8
Sichtbare_Kanten_TC_020513_DIN_
  6
Continuous
 62
     7
100
AcDbLine
 10
38.85062198961634
 20
122.2167596775341
 30
0.0
 11
39.38827690462387
 21
122.2167596775341
 31
0.0
  0
LINE
  5
122
330
1F
100
AcDbEntity
  8
Sichtbare_Kanten_TC_020513_DIN_
  6
Continuous
 62
     7
100
AcDbLine
 10
38.85062198961634
 20
122.2167596775341
 30
0.0
 11
38.35062198961634
 21
122.2167596775341
 31
0.0
  0
LINE
  5
123
330
1F
100
AcDbEntity
  8
Sichtbare_Kanten_TC_020513_DIN_
  6
Continuous
 62
     7
100
AcDbLine
 10
38.35062198961634
 20
123.6167596775341
 30
0.0
 11
38.85062198961634
 21
123.6167596775341
 31
0.0
  0
LINE
  5
124
330
1F
100
AcDbEntity
  8
Sichtbare_Kanten_TC_020513_DIN_
  6
Continuous
 62
     7
100
AcDbLine
 10
38.35062198961634
 20
123.6167596775341
 30
0.0
 11
38.35062198961634
 21
122.2167596775341
 31
0.0
  0
LINE
  5
125
330
1F
100
AcDbEntity
  8
Sichtbare_Kanten_TC_020513_DIN_
  6
Continuous
 62
     7
100
AcDbLine
 10
54.50049454909839
 20
138.4718917661651
 30
0.0
 11
56.12904020190035
 21
132.9635205959161
 31
0.0
  0
LINE
  5
126
330
1F
100
AcDbEntity
  8
Sichtbare_Kanten_TC_020513_DIN_
  6
Continuous
 62
     7
100
AcDbLine
 10
56.12904020190035
 20
133.5551861623531
 30
0.0
 11
54.50049454909839
 21
139.0635573326021
 31
0.0
  0
LINE
  5
127
330
1F
100
AcDbEntity
  8
Sichtbare_Kanten_TC_020513_DIN_
  6
Continuous
 62
     7
100
AcDbLine
 10
122.7565032197956
 20
151.0320372301271
 30
0.0
 11
59.02005058945218
 21
151.0320372301271
 31
0.0
  0
LINE
  5
128
330
1F
100
AcDbEntity
  8
Sichtbare_Kanten_TC_020513_DIN_
  6
Continuous
 62
     7
100
AcDbLine
 10
122.7565032197956
 20
152.4320372301271
 30
0.0
 11
59.02005058945218
 21
152.4320372301271
 31
0.0
  0
LINE
  5
129
330
1F
100
AcDbEntity
  8
Sichtbare_Kanten_TC_020513_DIN_
  6
Continuous
 62
     7
100
AcDbLine
 10
58.06089185447848
 20
132.2117100202991
 30
0.0
 11
123.7156619547695
 21
132.2117100202991
 31
0.0
  0
LINE
  5
12A
330
1F
100
AcDbEntity
  8
Sichtbare_Kanten_TC_020513_DIN_
  6
Continuous
 62
     7
100
AcDbLine
 10
123.7156619547695
 20
131.6200444538621
 30
0.0
 11
58.06089185447848
 21
131.6200444538621
 31
0.0
  0
LINE
  5
12B
330
1F
100
AcDbEntity
  8
Sichtbare_Kanten_TC_020513_DIN_
  6
Continuous
 62
     7
100
AcDbLine
 10
54.50049454909839
 20
138.8032228550491
 30
0.0
 11
54.50049454909839
 21
138.4718917661651
 31
0.0
  0
LINE
  5
12C
330
1F
100
AcDbEntity
  8
Sichtbare_Kanten_TC_020513_DIN_
  6
Continuous
 62
     7
100
AcDbLine
 10
54.50049454909839
 20
139.0635573326021
 30
0.0
 11
54.50049454909839
 21
138.8032228550491
 31
0.0
  0
LINE
  5
12D
330
1F
100
AcDbEntity
  8
Sichtbare_Kanten_TC_020513_DIN_
  6
Continuous
 62
     7
100
AcDbLine
 10
41.38827690462387
 20
141.2153999275371
 30
0.0
 11
41.38827690462387
 21
151.6506561767331
 31
0.0
  0
LINE
  5
12E
330
1F
100
AcDbEntity
  8
Sichtbare_Kanten_TC_020513_DIN_
  6
Continuous
 62
     7
100
AcDbLine
 10
42.17227499184446
 20
151.6506561767331
 30
0.0
 11
42.7882769046239
 21
151.6506561767331
 31
0.0
  0
LINE
  5
12F
330
1F
100
AcDbEntity
  8
Sichtbare_Kanten_TC_020513_DIN_
  6
Continuous
 62
     7
100
AcDbLine
 10
41.38827690462387
 20
151.6506561767331
 30
0.0
 11
42.17227499184446
 21
151.6506561767331
 31
0.0
  0
LINE
  5
130
330
1F
100
AcDbEntity
  8
Sichtbare_Kanten_TC_020513_DIN_
  6
Continuous
 62
     7
100
AcDbLine
 10
44.18827690462388
 20
141.2153999275371
 30
0.0
 11
41.38827690462387
 21
141.2153999275371
 31
0.0
  0
LINE
  5
131
330
1F
100
AcDbEntity
  8
Sichtbare_Kanten_TC_020513_DIN_
  6
Continuous
 62
     7
100
AcDbLine
 10
41.81921637628034
 20
151.2153999275371
 30
0.0
 11
44.18827690462388
 21
151.2153999275371
 31
0.0
  0
LINE
  5
132
330
1F
100
AcDbEntity
  8
Sichtbare_Kanten_TC_020513_DIN_
  6
Continuous
 62
     7
100
AcDbLine
 10
55.76606383014166
 20
151.6480383604091
 30
0.0
 11
55.76606383014166
 21
151.0320372301271
 31
0.0
  0
LINE
  5
133
330
1F
100
AcDbEntity
  8
Sichtbare_Kanten_TC_020513_DIN_
  6
Continuous
 62
     7
100
AcDbLine
 10
55.76606383014166
 20
152.4320372301271
 30
0.0
 11
55.76606383014166
 21
151.6480383604091
 31
0.0
  0
LINE
  5
134
330
1F
100
AcDbEntity
  8
Sichtbare_Kanten_TC_020513_DIN_
  6
Continuous
 62
     7
100
AcDbLine
 10
126.0104899791066
 20
151.6480383604091
 30
0.0
 11
126.0104899791066
 21
152.4320372301271
 31
0.0
  0
LINE
  5
135
330
1F
100
AcDbEntity
  8
Sichtbare_Kanten_TC_020513_DIN_
  6
Continuous
 62
     7
100
AcDbLine
 10
126.0104899791066
 20
151.0320372301271
 30
0.0
 11
126.0104899791066
 21
151.6480383604091
 31
0.0
  0
LINE
  5
136
330
1F
100
AcDbEntity
  8
Sichtbare_Kanten_TC_020513_DIN_
  6
Continuous
 62
     7
100
AcDbLine
 10
127.2760592601496
 20
138.8032228550491
 30
0.0
 11
127.2760592601496
 21
139.0635573326021
 31
0.0
  0
LINE
  5
137
330
1F
100
AcDbEntity
  8
Sichtbare_Kanten_TC_020513_DIN_
  6
Continuous
 62
     7
100
AcDbLine
 10
127.2760592601496
 20
138.4718917661651
 30
0.0
 11
127.2760592601496
 21
138.8032228550491
 31
0.0
  0
LINE
  5
138
330
1F
100
AcDbEntity
  8
Sichtbare_Kanten_TC_020513_DIN_
  6
Continuous
 62
     7
100
AcDbLine
 10
139.6042788174026
 20
151.6506561767331
 30
0.0
 11
140.3882769046236
 21
151.6506561767331
 31
0.0
  0
LINE
  5
139
330
1F
100
AcDbEntity
  8
Sichtbare_Kanten_TC_020513_DIN_
  6
Continuous
 62
     7
100
AcDbLine
 10
138.9882769046236
 20
151.6506561767331
 30
0.0
 11
139.6042788174026
 21
151.6506561767331
 31
0.0
  0
LINE
  5
13A
330
1F
100
AcDbEntity
  8
Sichtbare_Kanten_TC_020513_DIN_
  6
Continuous
 62
     7
100
AcDbLine
 10
137.5882769046236
 20
151.2153999275371
 30
0.0
 11
139.9573374329676
 21
151.2153999275371
 31
0.0
  0
LINE
  5
13B
330
1F
100
AcDbEntity
  8
Sichtbare_Kanten_TC_020513_DIN_
  6
Continuous
 62
     7
100
AcDbLine
 10
140.3882769046236
 20
141.2153999275371
 30
0.0
 11
137.5882769046236
 21
141.2153999275371
 31
0.0
  0
LINE
  5
13C
330
1F
100
AcDbEntity
  8
Sichtbare_Kanten_TC_020513_DIN_
  6
Continuous
 62
     7
100
AcDbLine
 10
140.3882769046236
 20
151.6506561767331
 30
0.0
 11
140.3882769046236
 21
141.2153999275371
 31
0.0
  0
LINE
  5
13D
330
1F
100
AcDbEntity
  8
Sichtbare_Kanten_TC_020513_DIN_
  6
Continuous
 62
     7
100
AcDbLine
 10
32.38827690462387
 20
97.24441459254162
 30
0.0
 11
32.38827690462387
 21
81.85441459254172
 31
0.0
  0
LINE
  5
13E
330
1F
100
AcDbEntity
  8
Sichtbare_Kanten_TC_020513_DIN_
  6
Continuous
 62
     7
100
AcDbLine
 10
32.38827690462387
 20
97.24441459254162
 30
0.0
 11
32.38827690462387
 21
112.3844145925421
 31
0.0
  0
LINE
  5
13F
330
1F
100
AcDbEntity
  8
Sichtbare_Kanten_TC_020513_DIN_
  6
Continuous
 62
     7
100
AcDbLine
 10
44.13827690462387
 20
112.3844145925421
 30
0.0
 11
32.38827690462387
 21
112.3844145925421
 31
0.0
  0
LINE
  5
140
330
1F
100
AcDbEntity
  8
Sichtbare_Kanten_TC_020513_DIN_
  6
Continuous
 62
     7
100
AcDbLine
 10
149.3882769046236
 20
77.85441459254172
 30
0.0
 11
140.3882769046236
 21
77.85441459254172
 31
0.0
  0
LINE
  5
141
330
1F
100
AcDbEntity
  8
Sichtbare_Kanten_TC_020513_DIN_
  6
Continuous
 62
     7
100
AcDbLine
 10
140.3882769046236
 20
77.85441459254172
 30
0.0
 11
130.3882769046236
 21
77.85441459254172
 31
0.0
  0
LINE
  5
142
330
1F
100
AcDbEntity
  8
Sichtbare_Kanten_TC_020513_DIN_
  6
Continuous
 62
     7
100
AcDbLine
 10
130.3882769046236
 20
77.85441459254172
 30
0.0
 11
51.38827690462387
 21
77.85441459254172
 31
0.0
  0
LINE
  5
143
330
1F
100
AcDbEntity
  8
Sichtbare_Kanten_TC_020513_DIN_
  6
Continuous
 62
     7
100
AcDbLine
 10
51.38827690462387
 20
77.85441459254172
 30
0.0
 11
41.38827690462387
 21
77.85441459254172
 31
0.0
  0
LINE
  5
144
330
1F
100
AcDbEntity
  8
Sichtbare_Kanten_TC_020513_DIN_
  6
Continuous
 62
     7
100
AcDbLine
 10
41.38827690462387
 20
77.85441459254172
 30
0.0
 11
32.38827690462387
 21
77.85441459254172
 31
0.0
  0
LINE
  5
145
330
1F
100
AcDbEntity
  8
Sichtbare_Kanten_TC_020513_DIN_
  6
Continuous
 62
     7
100
AcDbLine
 10
41.38827690462387
 20
81.85441459254172
 30
0.0
 11
32.38827690462387
 21
81.85441459254172
 31
0.0
  0
LINE
  5
146
330
1F
100
AcDbEntity
  8
Sichtbare_Kanten_TC_020513_DIN_
  6
Continuous
 62
     7
100
AcDbLine
 10
51.38827690462387
 20
81.85441459254172
 30
0.0
 11
41.38827690462387
 21
81.85441459254172
 31
0.0
  0
LINE
  5
147
330
1F
100
AcDbEntity
  8
Sichtbare_Kanten_TC_020513_DIN_
  6
Continuous
 62
     7
100
AcDbLine
 10
149.3882769046236
 20
77.85441459254172
 30
0.0
 11
149.3882769046236
 21
81.85441459254172
 31
0.0
  0
LINE
  5
148
330
1F
100
AcDbEntity
  8
Sichtbare_Kanten_TC_020513_DIN_
  6
Continuous
 62
     7
100
AcDbLine
 10
140.3882769046236
 20
81.85441459254172
 30
0.0
 11
130.3882769046236
 21
81.85441459254172
 31
0.0
  0
LINE
  5
149
330
1F
100
AcDbEntity
  8
Sichtbare_Kanten_TC_020513_DIN_
  6
Continuous
 62
     7
100
AcDbLine
 10
149.3882769046236
 20
81.85441459254172
 30
0.0
 11
140.3882769046236
 21
81.85441459254172
 31
0.0
  0
LINE
  5
14A
330
1F
100
AcDbEntity
  8
Sichtbare_Kanten_TC_020513_DIN_
  6
Continuous
 62
     7
100
AcDbLine
 10
140.3882769046236
 20
77.85441459254172
 30
0.0
 11
140.3882769046236
 21
81.85441459254172
 31
0.0
  0
LINE
  5
14B
330
1F
100
AcDbEntity
  8
Sichtbare_Kanten_TC_020513_DIN_
  6
Continuous
 62
     7
100
AcDbLine
 10
130.3882769046236
 20
77.85441459254172
 30
0.0
 11
130.3882769046236
 21
81.85441459254172
 31
0.0
  0
LINE
  5
14C
330
1F
100
AcDbEntity
  8
Sichtbare_Kanten_TC_020513_DIN_
  6
Continuous
 62
     7
100
AcDbLine
 10
51.38827690462387
 20
77.85441459254172
 30
0.0
 11
51.38827690462387
 21
81.85441459254172
 31
0.0
  0
LINE
  5
14D
330
1F
100
AcDbEntity
  8
Sichtbare_Kanten_TC_020513_DIN_
  6
Continuous
 62
     7
100
AcDbLine
 10
41.38827690462387
 20
77.85441459254172
 30
0.0
 11
41.38827690462387
 21
81.85441459254172
 31
0.0
  0
LINE
  5
14E
330
1F
100
AcDbEntity
  8
Sichtbare_Kanten_TC_020513_DIN_
  6
Continuous
 62
     7
100
AcDbLine
 10
32.38827690462387
 20
77.85441459254172
 30
0.0
 11
32.38827690462387
 21
81.85441459254172
 31
0.0
  0
LINE
  5
14F
330
1F
100
AcDbEntity
  8
Sichtbare_Kanten_TC_020513_DIN_
  6
Continuous
 62
     7
100
AcDbLine
 10
149.3882769046236
 20
97.24441459254162
 30
0.0
 11
149.3882769046236
 21
112.3844145925421
 31
0.0
  0
LINE
  5
150
330
1F
100
AcDbEntity
  8
Sichtbare_Kanten_TC_020513_DIN_
  6
Continuous
 62
     7
100
AcDbLine
 10
149.3882769046236
 20
97.24441459254162
 30
0.0
 11
149.3882769046236
 21
81.85441459254172
 31
0.0
  0
LINE
  5
151
330
1F
100
AcDbEntity
  8
Sichtbare_Kanten_TC_020513_DIN_
  6
Continuous
 62
     7
100
AcDbLine
 10
149.3882769046236
 20
112.3844145925421
 30
0.0
 11
137.6382769046236
 21
112.3844145925421
 31
0.0
  0
LINE
  5
152
330
1F
100
AcDbEntity
  8
Sichtbare_Kanten_TC_020513_DIN_
  6
Continuous
 62
     7
100
AcDbLine
 10
137.6382769046236
 20
81.85441459254172
 30
0.0
 11
137.6382769046236
 21
121.6377772899511
 31
0.0
  0
LINE
  5
153
330
1F
100
AcDbEntity
  8
Sichtbare_Kanten_TC_020513_DIN_
  6
Continuous
 62
     7
100
AcDbLine
 10
137.6382769046236
 20
123.0377772899511
 30
0.0
 11
137.6382769046236
 21
136.8544145925421
 31
0.0
  0
LINE
  5
154
330
1F
100
AcDbEntity
  8
Sichtbare_Kanten_TC_020513_DIN_
  6
Continuous
 62
     7
100
AcDbLine
 10
44.13827690462387
 20
81.85441459254172
 30
0.0
 11
44.13827690462387
 21
121.6377772899511
 31
0.0
  0
LINE
  5
155
330
1F
100
AcDbEntity
  8
Sichtbare_Kanten_TC_020513_DIN_
  6
Continuous
 62
     7
100
AcDbLine
 10
44.13827690462387
 20
123.0377772899511
 30
0.0
 11
44.13827690462387
 21
136.8544145925421
 31
0.0
  0
LINE
  5
156
330
1F
100
AcDbEntity
  8
Sichtbare_Kanten_TC_020513_DIN_
  6
Continuous
 62
     7
100
AcDbLine
 10
44.13827690462387
 20
136.8544145925421
 30
0.0
 11
50.13827690462387
 21
136.8544145925421
 31
0.0
  0
LINE
  5
157
330
1F
100
AcDbEntity
  8
Sichtbare_Kanten_TC_020513_DIN_
  6
Continuous
 62
     7
100
AcDbLine
 10
131.6382769046236
 20
136.8544145925421
 30
0.0
 11
137.6382769046236
 21
136.8544145925421
 31
0.0
  0
LINE
  5
158
330
1F
100
AcDbEntity
  8
Sichtbare_Kanten_TC_020513_DIN_
  6
Continuous
 62
     7
100
AcDbLine
 10
131.6382769046236
 20
136.8544145925421
 30
0.0
 11
126.7978533916275
 21
136.8544145925421
 31
0.0
  0
LINE
  5
159
330
1F
100
AcDbEntity
  8
Sichtbare_Kanten_TC_020513_DIN_
  6
Continuous
 62
     7
100
AcDbLine
 10
54.97870041762047
 20
136.8544145925421
 30
0.0
 11
50.13827690462387
 21
136.8544145925421
 31
0.0
  0
LINE
  5
15A
330
1F
100
AcDbEntity
  8
Sichtbare_Kanten_TC_020513_DIN_
  6
Continuous
 62
     7
100
AcDbLine
 10
44.33827690462385
 20
140.8544145925421
 30
0.0
 11
44.33827690462385
 21
136.8544145925421
 31
0.0
  0
LINE
  5
15B
330
1F
100
AcDbEntity
  8
Sichtbare_Kanten_TC_020513_DIN_
  6
Continuous
 62
     7
100
AcDbLine
 10
50.13827690462387
 20
140.8544145925421
 30
0.0
 11
44.33827690462385
 21
140.8544145925421
 31
0.0
  0
LINE
  5
15C
330
1F
100
AcDbEntity
  8
Sichtbare_Kanten_TC_020513_DIN_
  6
Continuous
 62
     7
100
AcDbLine
 10
50.13827690462387
 20
140.8544145925421
 30
0.0
 11
53.94347168320076
 21
140.8544145925421
 31
0.0
  0
LINE
  5
15D
330
1F
100
AcDbEntity
  8
Sichtbare_Kanten_TC_020513_DIN_
  6
Continuous
 62
     7
100
AcDbLine
 10
127.8330821260466
 20
140.8544145925421
 30
0.0
 11
131.6382769046236
 21
140.8544145925421
 31
0.0
  0
LINE
  5
15E
330
1F
100
AcDbEntity
  8
Sichtbare_Kanten_TC_020513_DIN_
  6
Continuous
 62
     7
100
AcDbLine
 10
137.4382769046235
 20
140.8544145925421
 30
0.0
 11
137.4382769046235
 21
136.8544145925421
 31
0.0
  0
LINE
  5
15F
330
1F
100
AcDbEntity
  8
Sichtbare_Kanten_TC_020513_DIN_
  6
Continuous
 62
     7
100
AcDbLine
 10
137.4382769046235
 20
140.8544145925421
 30
0.0
 11
131.6382769046236
 21
140.8544145925421
 31
0.0
  0
LINE
  5
160
330
1F
100
AcDbEntity
  8
Sichtbare_Kanten_TC_020513_DIN_
  6
Continuous
 62
     7
100
AcDbLine
 10
44.04827690462389
 20
131.3544145925421
 30
0.0
 11
44.04827690462389
 21
136.3544145925421
 31
0.0
  0
LINE
  5
161
330
1F
100
AcDbEntity
  8
Sichtbare_Kanten_TC_020513_DIN_
  6
Continuous
 62
     7
100
AcDbLine
 10
38.7882769046239
 20
129.8544145925421
 30
0.0
 11
38.7882769046239
 21
137.8544145925421
 31
0.0
  0
LINE
  5
162
330
1F
100
AcDbEntity
  8
Sichtbare_Kanten_TC_020513_DIN_
  6
Continuous
 62
     7
100
AcDbLine
 10
37.38827690462387
 20
129.8544145925421
 30
0.0
 11
37.38827690462387
 21
137.8544145925421
 31
0.0
  0
LINE
  5
163
330
1F
100
AcDbEntity
  8
Sichtbare_Kanten_TC_020513_DIN_
  6
Continuous
 62
     7
100
AcDbLine
 10
44.04827690462389
 20
135.3544145925421
 30
0.0
 11
44.13827690462375
 21
135.3544145925421
 31
0.0
  0
LINE
  5
164
330
1F
100
AcDbEntity
  8
Sichtbare_Kanten_TC_020513_DIN_
  6
Continuous
 62
     7
100
AcDbLine
 10
44.04827690462389
 20
132.3544145925421
 30
0.0
 11
44.13827690462375
 21
132.3544145925421
 31
0.0
  0
LINE
  5
165
330
1F
100
AcDbEntity
  8
Sichtbare_Kanten_TC_020513_DIN_
  6
Continuous
 62
     7
100
AcDbLine
 10
38.7882769046239
 20
136.3544145925421
 30
0.0
 11
39.38827690462387
 21
136.3544145925421
 31
0.0
  0
LINE
  5
166
330
1F
100
AcDbEntity
  8
Sichtbare_Kanten_TC_020513_DIN_
  6
Continuous
 62
     7
100
AcDbLine
 10
38.7882769046239
 20
131.3544145925421
 30
0.0
 11
39.38827690462387
 21
131.3544145925421
 31
0.0
  0
LINE
  5
167
330
1F
100
AcDbEntity
  8
Sichtbare_Kanten_TC_020513_DIN_
  6
Continuous
 62
     7
100
AcDbLine
 10
40.7882769046239
 20
136.3544145925421
 30
0.0
 11
41.38827690462387
 21
136.3544145925421
 31
0.0
  0
LINE
  5
168
330
1F
100
AcDbEntity
  8
Sichtbare_Kanten_TC_020513_DIN_
  6
Continuous
 62
     7
100
AcDbLine
 10
42.7882769046239
 20
136.3544145925421
 30
0.0
 11
44.04827690462389
 21
136.3544145925421
 31
0.0
  0
LINE
  5
169
330
1F
100
AcDbEntity
  8
Sichtbare_Kanten_TC_020513_DIN_
  6
Continuous
 62
     7
100
AcDbLine
 10
40.7882769046239
 20
131.3544145925421
 30
0.0
 11
41.38827690462387
 21
131.3544145925421
 31
0.0
  0
LINE
  5
16A
330
1F
100
AcDbEntity
  8
Sichtbare_Kanten_TC_020513_DIN_
  6
Continuous
 62
     7
100
AcDbLine
 10
42.7882769046239
 20
131.3544145925421
 30
0.0
 11
44.04827690462389
 21
131.3544145925421
 31
0.0
  0
LINE
  5
16B
330
1F
100
AcDbEntity
  8
Sichtbare_Kanten_TC_020513_DIN_
  6
Continuous
 62
     7
100
AcDbLine
 10
137.7282769046236
 20
131.3544145925421
 30
0.0
 11
137.7282769046236
 21
136.3544145925421
 31
0.0
  0
LINE
  5
16C
330
1F
100
AcDbEntity
  8
Sichtbare_Kanten_TC_020513_DIN_
  6
Continuous
 62
     7
100
AcDbLine
 10
142.9882769046236
 20
129.8544145925421
 30
0.0
 11
142.9882769046236
 21
137.8544145925421
 31
0.0
  0
LINE
  5
16D
330
1F
100
AcDbEntity
  8
Sichtbare_Kanten_TC_020513_DIN_
  6
Continuous
 62
     7
100
AcDbLine
 10
144.3882769046236
 20
129.8544145925421
 30
0.0
 11
144.3882769046236
 21
137.8544145925421
 31
0.0
  0
LINE
  5
16E
330
1F
100
AcDbEntity
  8
Sichtbare_Kanten_TC_020513_DIN_
  6
Continuous
 62
     7
100
AcDbLine
 10
137.6382769046236
 20
135.3544145925421
 30
0.0
 11
137.7282769046236
 21
135.3544145925421
 31
0.0
  0
LINE
  5
16F
330
1F
100
AcDbEntity
  8
Sichtbare_Kanten_TC_020513_DIN_
  6
Continuous
 62
     7
100
AcDbLine
 10
137.6382769046236
 20
132.3544145925421
 30
0.0
 11
137.7282769046236
 21
132.3544145925421
 31
0.0
  0
LINE
  5
170
330
1F
100
AcDbEntity
  8
Sichtbare_Kanten_TC_020513_DIN_
  6
Continuous
 62
     7
100
AcDbLine
 10
142.3882769046236
 20
136.3544145925421
 30
0.0
 11
142.9882769046236
 21
136.3544145925421
 31
0.0
  0
LINE
  5
171
330
1F
100
AcDbEntity
  8
Sichtbare_Kanten_TC_020513_DIN_
  6
Continuous
 62
     7
100
AcDbLine
 10
142.3882769046236
 20
131.3544145925421
 30
0.0
 11
142.9882769046236
 21
131.3544145925421
 31
0.0
  0
LINE
  5
172
330
1F
100
AcDbEntity
  8
Sichtbare_Kanten_TC_020513_DIN_
  6
Continuous
 62
     7
100
AcDbLine
 10
137.7282769046236
 20
136.3544145925421
 30
0.0
 11
138.9882769046236
 21
136.3544145925421
 31
0.0
  0
LINE
  5
173
330
1F
100
AcDbEntity
  8
Sichtbare_Kanten_TC_020513_DIN_
  6
Continuous
 62
     7
100
AcDbLine
 10
140.3882769046236
 20
136.3544145925421
 30
0.0
 11
140.9882769046236
 21
136.3544145925421
 31
0.0
  0
LINE
  5
174
330
1F
100
AcDbEntity
  8
Sichtbare_Kanten_TC_020513_DIN_
  6
Continuous
 62
     7
100
AcDbLine
 10
137.7282769046236
 20
131.3544145925421
 30
0.0
 11
138.9882769046236
 21
131.3544145925421
 31
0.0
  0
LINE
  5
175
330
1F
100
AcDbEntity
  8
Sichtbare_Kanten_TC_020513_DIN_
  6
Continuous
 62
     7
100
AcDbLine
 10
140.3882769046236
 20
131.3544145925421
 30
0.0
 11
140.9882769046236
 21
131.3544145925421
 31
0.0
  0
LINE
  5
176
330
1F
100
AcDbEntity
  8
Sichtbare_Kanten_TC_020513_DIN_
  6
Continuous
 62
     7
100
AcDbLine
 10
100.6716396020336
 20
121.6176431557361
 30
0.0
 11
100.6716396020336
 21
121.5377772899511
 31
0.0
  0
LINE
  5
177
330
1F
100
AcDbEntity
  8
Sichtbare_Kanten_TC_020513_DIN_
  6
Continuous
 62
     7
100
AcDbLine
 10
129.6716396020325
 20
121.5377772899511
 30
0.0
 11
129.6716396020325
 21
121.6377772899511
 31
0.0
  0
LINE
  5
178
330
1F
100
AcDbEntity
  8
Sichtbare_Kanten_TC_020513_DIN_
  6
Continuous
 62
     7
100
AcDbLine
 10
52.10491420721456
 20
121.6377772899511
 30
0.0
 11
52.10491420721456
 21
121.5377772899511
 31
0.0
  0
LINE
  5
179
330
1F
100
AcDbEntity
  8
Sichtbare_Kanten_TC_020513_DIN_
  6
Continuous
 62
     7
100
AcDbLine
 10
81.10491420721456
 20
121.5377772899511
 30
0.0
 11
81.10491420721456
 21
121.6176431557361
 31
0.0
  0
LINE
  5
17A
330
1F
100
AcDbEntity
  8
Sichtbare_Kanten_TC_020513_DIN_
  6
Continuous
 62
     7
100
AcDbLine
 10
129.6716396020325
 20
120.7001223749431
 30
0.0
 11
101.1716396020336
 21
120.7001223749431
 31
0.0
  0
LINE
  5
17B
330
1F
100
AcDbEntity
  8
Sichtbare_Kanten_TC_020513_DIN_
  6
Continuous
 62
     7
100
AcDbLine
 10
100.6716396020336
 20
121.2001223749431
 30
0.0
 11
100.6716396020336
 21
121.5377772899511
 31
0.0
  0
LINE
  5
17C
330
1F
100
AcDbEntity
  8
Sichtbare_Kanten_TC_020513_DIN_
  6
Continuous
 62
     7
100
AcDbLine
 10
129.6716396020325
 20
121.5377772899511
 30
0.0
 11
129.6716396020325
 21
120.7001223749431
 31
0.0
  0
LINE
  5
17D
330
1F
100
AcDbEntity
  8
Sichtbare_Kanten_TC_020513_DIN_
  6
Continuous
 62
     7
100
AcDbLine
 10
140.9882769046236
 20
124.4377772899511
 30
0.0
 11
140.9882769046236
 21
126.8544145925421
 31
0.0
  0
LINE
  5
17E
330
1F
100
AcDbEntity
  8
Sichtbare_Kanten_TC_020513_DIN_
  6
Continuous
 62
     7
100
AcDbLine
 10
140.9882769046236
 20
134.8544145925421
 30
0.0
 11
140.9882769046236
 21
126.8544145925421
 31
0.0
  0
LINE
  5
17F
330
1F
100
AcDbEntity
  8
Sichtbare_Kanten_TC_020513_DIN_
  6
Continuous
 62
     7
100
AcDbLine
 10
140.9882769046236
 20
134.8544145925421
 30
0.0
 11
140.9882769046236
 21
135.0328268424491
 31
0.0
  0
LINE
  5
180
330
1F
100
AcDbEntity
  8
Sichtbare_Kanten_TC_020513_DIN_
  6
Continuous
 62
     7
100
AcDbLine
 10
140.9882769046236
 20
140.1463903061211
 30
0.0
 11
140.9882769046236
 21
135.0328268424491
 31
0.0
  0
LINE
  5
181
330
1F
100
AcDbEntity
  8
Sichtbare_Kanten_TC_020513_DIN_
  6
Continuous
 62
     7
100
AcDbLine
 10
140.9882769046236
 20
140.8544145925421
 30
0.0
 11
140.9882769046236
 21
140.1463903061211
 31
0.0
  0
LINE
  5
182
330
1F
100
AcDbEntity
  8
Sichtbare_Kanten_TC_020513_DIN_
  6
Continuous
 62
     7
100
AcDbLine
 10
140.9882769046236
 20
122.0129061593541
 30
0.0
 11
140.9882769046236
 21
119.1204741679361
 31
0.0
  0
LINE
  5
183
330
1F
100
AcDbEntity
  8
Sichtbare_Kanten_TC_020513_DIN_
  6
Continuous
 62
     7
100
AcDbLine
 10
142.3882769046236
 20
124.4377772899511
 30
0.0
 11
142.3882769046236
 21
119.1204741679361
 31
0.0
  0
LINE
  5
184
330
1F
100
AcDbEntity
  8
Sichtbare_Kanten_TC_020513_DIN_
  6
Continuous
 62
     7
100
AcDbLine
 10
142.3882769046236
 20
140.8544145925421
 30
0.0
 11
142.3882769046236
 21
140.1463903061211
 31
0.0
  0
LINE
  5
185
330
1F
100
AcDbEntity
  8
Sichtbare_Kanten_TC_020513_DIN_
  6
Continuous
 62
     7
100
AcDbLine
 10
142.3882769046236
 20
140.1463903061211
 30
0.0
 11
142.3882769046236
 21
135.0328268424491
 31
0.0
  0
LINE
  5
186
330
1F
100
AcDbEntity
  8
Sichtbare_Kanten_TC_020513_DIN_
  6
Continuous
 62
     7
100
AcDbLine
 10
142.3882769046236
 20
134.8544145925421
 30
0.0
 11
142.3882769046236
 21
135.0328268424491
 31
0.0
  0
LINE
  5
187
330
1F
100
AcDbEntity
  8
Sichtbare_Kanten_TC_020513_DIN_
  6
Continuous
 62
     7
100
AcDbLine
 10
142.3882769046236
 20
134.8544145925421
 30
0.0
 11
142.3882769046236
 21
126.8544145925421
 31
0.0
  0
LINE
  5
188
330
1F
100
AcDbEntity
  8
Sichtbare_Kanten_TC_020513_DIN_
  6
Continuous
 62
     7
100
AcDbLine
 10
142.3882769046236
 20
124.4377772899511
 30
0.0
 11
142.3882769046236
 21
126.8544145925421
 31
0.0
  0
LINE
  5
189
330
1F
100
AcDbEntity
  8
Sichtbare_Kanten_TC_020513_DIN_
  6
Continuous
 62
     7
100
AcDbLine
 10
142.3882769046236
 20
134.8544145925421
 30
0.0
 11
140.9882769046236
 21
134.8544145925421
 31
0.0
  0
LINE
  5
18A
330
1F
100
AcDbEntity
  8
Sichtbare_Kanten_TC_020513_DIN_
  6
Continuous
 62
     7
100
AcDbLine
 10
135.6716396020325
 20
123.0377772899511
 30
0.0
 11
139.5882769046236
 21
123.0377772899511
 31
0.0
  0
LINE
  5
18B
330
1F
100
AcDbEntity
  8
Sichtbare_Kanten_TC_020513_DIN_
  6
Continuous
 62
     7
100
AcDbLine
 10
135.6716396020325
 20
121.6377772899511
 30
0.0
 11
139.5882769046236
 21
121.6377772899511
 31
0.0
  0
LINE
  5
18C
330
1F
100
AcDbEntity
  8
Sichtbare_Kanten_TC_020513_DIN_
  6
Continuous
 62
     7
100
AcDbLine
 10
134.8800947771016
 20
123.0377772899511
 30
0.0
 11
135.6716396020325
 21
123.0377772899511
 31
0.0
  0
LINE
  5
18D
330
1F
100
AcDbEntity
  8
Sichtbare_Kanten_TC_020513_DIN_
  6
Continuous
 62
     7
100
AcDbLine
 10
134.8800947771016
 20
121.6377772899511
 30
0.0
 11
135.6716396020325
 21
121.6377772899511
 31
0.0
  0
LINE
  5
18E
330
1F
100
AcDbEntity
  8
Sichtbare_Kanten_TC_020513_DIN_
  6
Continuous
 62
     7
100
AcDbLine
 10
134.8800947771016
 20
123.0377772899511
 30
0.0
 11
128.5477361776456
 21
123.0377772899511
 31
0.0
  0
LINE
  5
18F
330
1F
100
AcDbEntity
  8
Sichtbare_Kanten_TC_020513_DIN_
  6
Continuous
 62
     7
100
AcDbLine
 10
134.8800947771016
 20
121.6377772899511
 30
0.0
 11
128.5477361776456
 21
121.6377772899511
 31
0.0
  0
LINE
  5
190
330
1F
100
AcDbEntity
  8
Sichtbare_Kanten_TC_020513_DIN_
  6
Continuous
 62
     7
100
AcDbLine
 10
140.9882769046236
 20
119.1204741679361
 30
0.0
 11
142.3882769046236
 21
119.1204741679361
 31
0.0
  0
LINE
  5
191
330
1F
100
AcDbEntity
  8
Sichtbare_Kanten_TC_020513_DIN_
  6
Continuous
 62
     7
100
AcDbLine
 10
140.9882769046236
 20
140.8544145925421
 30
0.0
 11
142.3882769046236
 21
140.8544145925421
 31
0.0
  0
LINE
  5
192
330
1F
100
AcDbEntity
  8
Sichtbare_Kanten_TC_020513_DIN_
  6
Continuous
 62
     7
100
AcDbLine
 10
128.5477361776456
 20
121.6377772899511
 30
0.0
 11
53.22881763160217
 21
121.6377772899511
 31
0.0
  0
LINE
  5
193
330
1F
100
AcDbEntity
  8
Sichtbare_Kanten_TC_020513_DIN_
  6
Continuous
 62
     7
100
AcDbLine
 10
46.8964590321466
 20
121.6377772899511
 30
0.0
 11
53.22881763160217
 21
121.6377772899511
 31
0.0
  0
LINE
  5
194
330
1F
100
AcDbEntity
  8
Sichtbare_Kanten_TC_020513_DIN_
  6
Continuous
 62
     7
100
AcDbLine
 10
46.8964590321466
 20
121.6377772899511
 30
0.0
 11
46.10491420721456
 21
121.6377772899511
 31
0.0
  0
LINE
  5
195
330
1F
100
AcDbEntity
  8
Sichtbare_Kanten_TC_020513_DIN_
  6
Continuous
 62
     7
100
AcDbLine
 10
46.10491420721456
 20
121.6377772899511
 30
0.0
 11
42.18827690462388
 21
121.6377772899511
 31
0.0
  0
LINE
  5
196
330
1F
100
AcDbEntity
  8
Sichtbare_Kanten_TC_020513_DIN_
  6
Continuous
 62
     7
100
AcDbLine
 10
128.5477361776456
 20
123.0377772899511
 30
0.0
 11
53.22881763160217
 21
123.0377772899511
 31
0.0
  0
LINE
  5
197
330
1F
100
AcDbEntity
  8
Sichtbare_Kanten_TC_020513_DIN_
  6
Continuous
 62
     7
100
AcDbLine
 10
52.10491420721456
 20
120.7001223749441
 30
0.0
 11
80.60491420721456
 21
120.7001223749431
 31
0.0
  0
LINE
  5
198
330
1F
100
AcDbEntity
  8
Sichtbare_Kanten_TC_020513_DIN_
  6
Continuous
 62
     7
100
AcDbLine
 10
81.10491420721456
 20
121.2001223749431
 30
0.0
 11
81.10491420721456
 21
121.5377772899511
 31
0.0
  0
LINE
  5
199
330
1F
100
AcDbEntity
  8
Sichtbare_Kanten_TC_020513_DIN_
  6
Continuous
 62
     7
100
AcDbLine
 10
52.10491420721456
 20
121.5377772899511
 30
0.0
 11
52.10491420721456
 21
120.7001223749441
 31
0.0
  0
LINE
  5
19A
330
1F
100
AcDbEntity
  8
Sichtbare_Kanten_TC_020513_DIN_
  6
Continuous
 62
     7
100
AcDbLine
 10
46.10491420721456
 20
123.0377772899511
 30
0.0
 11
42.18827690462388
 21
123.0377772899511
 31
0.0
  0
LINE
  5
19B
330
1F
100
AcDbEntity
  8
Sichtbare_Kanten_TC_020513_DIN_
  6
Continuous
 62
     7
100
AcDbLine
 10
46.8964590321466
 20
123.0377772899511
 30
0.0
 11
46.10491420721456
 21
123.0377772899511
 31
0.0
  0
LINE
  5
19C
330
1F
100
AcDbEntity
  8
Sichtbare_Kanten_TC_020513_DIN_
  6
Continuous
 62
     7
100
AcDbLine
 10
46.8964590321466
 20
123.0377772899511
 30
0.0
 11
53.22881763160217
 21
123.0377772899511
 31
0.0
  0
LINE
  5
19D
330
1F
100
AcDbEntity
  8
Sichtbare_Kanten_TC_020513_DIN_
  6
Continuous
 62
     7
100
AcDbLine
 10
40.7882769046239
 20
122.0129061593541
 30
0.0
 11
40.7882769046239
 21
119.1204741679361
 31
0.0
  0
LINE
  5
19E
330
1F
100
AcDbEntity
  8
Sichtbare_Kanten_TC_020513_DIN_
  6
Continuous
 62
     7
100
AcDbLine
 10
40.7882769046239
 20
140.8544145925421
 30
0.0
 11
40.7882769046239
 21
140.1463903061211
 31
0.0
  0
LINE
  5
19F
330
1F
100
AcDbEntity
  8
Sichtbare_Kanten_TC_020513_DIN_
  6
Continuous
 62
     7
100
AcDbLine
 10
40.7882769046239
 20
140.1463903061211
 30
0.0
 11
40.7882769046239
 21
135.0328268424491
 31
0.0
  0
LINE
  5
1A0
330
1F
100
AcDbEntity
  8
Sichtbare_Kanten_TC_020513_DIN_
  6
Continuous
 62
     7
100
AcDbLine
 10
40.7882769046239
 20
134.8544145925421
 30
0.0
 11
40.7882769046239
 21
135.0328268424491
 31
0.0
  0
LINE
  5
1A1
330
1F
100
AcDbEntity
  8
Sichtbare_Kanten_TC_020513_DIN_
  6
Continuous
 62
     7
100
AcDbLine
 10
40.7882769046239
 20
134.8544145925421
 30
0.0
 11
40.7882769046239
 21
126.8544145925421
 31
0.0
  0
LINE
  5
1A2
330
1F
100
AcDbEntity
  8
Sichtbare_Kanten_TC_020513_DIN_
  6
Continuous
 62
     7
100
AcDbLine
 10
40.7882769046239
 20
124.4377772899511
 30
0.0
 11
40.7882769046239
 21
126.8544145925421
 31
0.0
  0
LINE
  5
1A3
330
1F
100
AcDbEntity
  8
Sichtbare_Kanten_TC_020513_DIN_
  6
Continuous
 62
     7
100
AcDbLine
 10
39.38827690462387
 20
124.4377772899511
 30
0.0
 11
39.38827690462387
 21
126.8544145925421
 31
0.0
  0
LINE
  5
1A4
330
1F
100
AcDbEntity
  8
Sichtbare_Kanten_TC_020513_DIN_
  6
Continuous
 62
     7
100
AcDbLine
 10
39.38827690462387
 20
134.8544145925421
 30
0.0
 11
39.38827690462387
 21
126.8544145925421
 31
0.0
  0
LINE
  5
1A5
330
1F
100
AcDbEntity
  8
Sichtbare_Kanten_TC_020513_DIN_
  6
Continuous
 62
     7
100
AcDbLine
 10
39.38827690462387
 20
134.8544145925421
 30
0.0
 11
39.38827690462387
 21
135.0328268424491
 31
0.0
  0
LINE
  5
1A6
330
1F
100
AcDbEntity
  8
Sichtbare_Kanten_TC_020513_DIN_
  6
Continuous
 62
     7
100
AcDbLine
 10
39.38827690462387
 20
140.1463903061211
 30
0.0
 11
39.38827690462387
 21
135.0328268424491
 31
0.0
  0
LINE
  5
1A7
330
1F
100
AcDbEntity
  8
Sichtbare_Kanten_TC_020513_DIN_
  6
Continuous
 62
     7
100
AcDbLine
 10
39.38827690462387
 20
140.8544145925421
 30
0.0
 11
39.38827690462387
 21
140.1463903061211
 31
0.0
  0
LINE
  5
1A8
330
1F
100
AcDbEntity
  8
Sichtbare_Kanten_TC_020513_DIN_
  6
Continuous
 62
     7
100
AcDbLine
 10
39.38827690462387
 20
124.4377772899511
 30
0.0
 11
39.38827690462387
 21
119.1204741679361
 31
0.0
  0
LINE
  5
1A9
330
1F
100
AcDbEntity
  8
Sichtbare_Kanten_TC_020513_DIN_
  6
Continuous
 62
     7
100
AcDbLine
 10
39.38827690462387
 20
134.8544145925421
 30
0.0
 11
40.7882769046239
 21
134.8544145925421
 31
0.0
  0
LINE
  5
1AA
330
1F
100
AcDbEntity
  8
Sichtbare_Kanten_TC_020513_DIN_
  6
Continuous
 62
     7
100
AcDbLine
 10
39.38827690462387
 20
119.1204741679361
 30
0.0
 11
40.7882769046239
 21
119.1204741679361
 31
0.0
  0
LINE
  5
1AB
330
1F
100
AcDbEntity
  8
Sichtbare_Kanten_TC_020513_DIN_
  6
Continuous
 62
     7
100
AcDbLine
 10
39.38827690462387
 20
140.8544145925421
 30
0.0
 11
40.7882769046239
 21
140.8544145925421
 31
0.0
  0
LINE
  5
1AC
330
1F
100
AcDbEntity
  8
Sichtbare_Kanten_TC_020513_DIN_
  6
Continuous
 62
     7
100
AcDbLine
 10
259.9048934910996
 20
151.2153999275371
 30
0.0
 11
259.9048934910996
 21
141.2153999275371
 31
0.0
  0
LINE
  5
1AD
330
1F
100
AcDbEntity
  8
Sichtbare_Kanten_TC_020513_DIN_
  6
Continuous
 62
     7
100
AcDbLine
 10
259.9048934910996
 20
141.2153999275371
 30
0.0
 11
257.1048934910996
 21
141.2153999275371
 31
0.0
  0
LINE
  5
1AE
330
1F
100
AcDbEntity
  8
Sichtbare_Kanten_TC_020513_DIN_
  6
Continuous
 62
     7
100
AcDbLine
 10
258.5973921386845
 20
151.2153999275371
 30
0.0
 11
259.9048934910996
 21
151.2153999275371
 31
0.0
  0
LINE
  5
1AF
330
1F
100
AcDbEntity
  8
Sichtbare_Kanten_TC_020513_DIN_
  6
Continuous
 62
     7
100
AcDbLine
 10
259.9048934911026
 20
141.0301046888121
 30
0.0
 11
259.9048934910996
 21
141.2153999275371
 31
0.0
  0
LINE
  5
1B0
330
1F
100
AcDbEntity
  8
Sichtbare_Kanten_TC_020513_DIN_
  6
Continuous
 62
     7
100
AcDbLine
 10
259.9048934911026
 20
139.6552228990391
 30
0.0
 11
259.9048934911026
 21
141.0301046888121
 31
0.0
  0
LINE
  5
1B1
330
1F
100
AcDbEntity
  8
Sichtbare_Kanten_TC_020513_DIN_
  6
Continuous
 62
     7
100
AcDbLine
 10
230.1382561885085
 20
123.8544145925421
 30
0.0
 11
230.1382561885085
 21
123.7167596775341
 31
0.0
  0
LINE
  5
1B2
330
1F
100
AcDbEntity
  8
Sichtbare_Kanten_TC_020513_DIN_
  6
Continuous
 62
     7
100
AcDbLine
 10
230.1743968501426
 20
123.8544145925421
 30
0.0
 11
230.1382561885085
 21
123.8544145925421
 31
0.0
  0
LINE
  5
1B3
330
1F
100
AcDbEntity
  8
Sichtbare_Kanten_TC_020513_DIN_
  6
Continuous
 62
     7
100
AcDbLine
 10
241.1264019502276
 20
136.8979924639151
 30
0.0
 11
240.9993015949026
 21
135.4452287548451
 31
0.0
  0
LINE
  5
1B4
330
1F
100
AcDbEntity
  8
Sichtbare_Kanten_TC_020513_DIN_
  6
Continuous
 62
     7
100
AcDbLine
 10
251.4280650163156
 20
145.2465643556341
 30
0.0
 11
241.3143081270815
 21
137.2465643556341
 31
0.0
  0
LINE
  5
1B5
330
1F
100
AcDbEntity
  8
Sichtbare_Kanten_TC_020513_DIN_
  6
Continuous
 62
     7
100
AcDbLine
 10
254.9539566623226
 20
141.5950175831511
 30
0.0
 11
252.1304059516016
 21
145.1646057647341
 31
0.0
  0
LINE
  5
1B6
330
1F
100
AcDbEntity
  8
Sichtbare_Kanten_TC_020513_DIN_
  6
Continuous
 62
     7
100
AcDbLine
 10
257.1048934910996
 20
141.2153999275371
 30
0.0
 11
255.7382561885086
 21
141.2153999275371
 31
0.0
  0
LINE
  5
1B7
330
1F
100
AcDbEntity
  8
Sichtbare_Kanten_TC_020513_DIN_
  6
Continuous
 62
     7
100
AcDbLine
 10
253.7637017149376
 20
153.6978758613321
 30
0.0
 11
257.1048934910996
 21
151.6506561767331
 31
0.0
  0
LINE
  5
1B8
330
1F
100
AcDbEntity
  8
Sichtbare_Kanten_TC_020513_DIN_
  6
Continuous
 62
     7
100
AcDbLine
 10
227.4779745076805
 20
158.8544145925421
 30
0.0
 11
235.4779745076805
 21
158.8544145925421
 31
0.0
  0
LINE
  5
1B9
330
1F
100
AcDbEntity
  8
Sichtbare_Kanten_TC_020513_DIN_
  6
Continuous
 62
     7
100
AcDbLine
 10
237.0252581441775
 20
145.5276248595561
 30
0.0
 11
235.9596131356846
 21
148.4133069956691
 31
0.0
  0
LINE
  5
1BA
330
1F
100
AcDbEntity
  8
Sichtbare_Kanten_TC_020513_DIN_
  6
Continuous
 62
     7
100
AcDbLine
 10
234.7382561885086
 20
141.8544145925421
 30
0.0
 11
236.9671341248446
 21
145.0695491232401
 31
0.0
  0
LINE
  5
1BB
330
1F
100
AcDbEntity
  8
Sichtbare_Kanten_TC_020513_DIN_
  6
Continuous
 62
     7
100
AcDbLine
 10
234.7382561885086
 20
140.1789699128781
 30
0.0
 11
234.7382561885086
 21
141.8544145925421
 31
0.0
  0
LINE
  5
1BC
330
1F
100
AcDbEntity
  8
Sichtbare_Kanten_TC_020513_DIN_
  6
Continuous
 62
     7
100
AcDbLine
 10
227.2382561885086
 20
123.7167596775341
 30
0.0
 11
227.2382561885086
 21
123.7558024114081
 31
0.0
  0
LINE
  5
1BD
330
1F
100
AcDbEntity
  8
Sichtbare_Kanten_TC_020513_DIN_
  6
Continuous
 62
     7
100
AcDbLine
 10
258.5048934911025
 20
141.0301046888121
 30
0.0
 11
258.5048934911025
 21
139.6552228990391
 31
0.0
  0
LINE
  5
1BE
330
1F
100
AcDbEntity
  8
Sichtbare_Kanten_TC_020513_DIN_
  6
Continuous
 62
     7
100
AcDbLine
 10
258.5048934911025
 20
141.2153999275371
 30
0.0
 11
258.5048934911025
 21
141.0301046888121
 31
0.0
  0
LINE
  5
1BF
330
1F
100
AcDbEntity
  8
Sichtbare_Kanten_TC_020513_DIN_
  6
Continuous
 62
     7
100
AcDbLine
 10
266.2391688838997
 20
152.4320372301271
 30
0.0
 11
267.7215307936956
 21
152.4320372301271
 31
0.0
  0
LINE
  5
1C0
330
1F
100
AcDbEntity
  8
Sichtbare_Kanten_TC_020513_DIN_
  6
Continuous
 62
     7
100
AcDbLine
 10
267.7215307936956
 20
151.0320372301271
 30
0.0
 11
266.2391688838997
 21
151.0320372301271
 31
0.0
  0
LINE
  5
1C1
330
1F
100
AcDbEntity
  8
Sichtbare_Kanten_TC_020513_DIN_
  6
Continuous
 62
     7
100
AcDbLine
 10
267.7215307936956
 20
151.0320372301271
 30
0.0
 11
267.7215307936956
 21
152.4320372301271
 31
0.0
  0
LINE
  5
1C2
330
1F
100
AcDbEntity
  8
Sichtbare_Kanten_TC_020513_DIN_
  6
Continuous
 62
     7
100
AcDbLine
 10
261.3048934911036
 20
151.0320372301271
 30
0.0
 11
266.2391688838997
 21
151.0320372301271
 31
0.0
  0
LINE
  5
1C3
330
1F
100
AcDbEntity
  8
Sichtbare_Kanten_TC_020513_DIN_
  6
Continuous
 62
     7
100
AcDbLine
 10
266.2391688838997
 20
152.4320372301271
 30
0.0
 11
261.3048934911036
 21
152.4320372301271
 31
0.0
  0
LINE
  5
1C4
330
1F
100
AcDbEntity
  8
Sichtbare_Kanten_TC_020513_DIN_
  6
Continuous
 62
     7
100
AcDbLine
 10
230.1382561885076
 20
123.6167596775341
 30
0.0
 11
230.1382561885076
 21
122.2167596775341
 31
0.0
  0
LINE
  5
1C5
330
1F
100
AcDbEntity
  8
Sichtbare_Kanten_TC_020513_DIN_
  6
Continuous
 62
     7
100
AcDbLine
 10
230.1382561885076
 20
122.2167596775341
 30
0.0
 11
229.6382561885076
 21
122.2167596775341
 31
0.0
  0
LINE
  5
1C6
330
1F
100
AcDbEntity
  8
Sichtbare_Kanten_TC_020513_DIN_
  6
Continuous
 62
     7
100
AcDbLine
 10
229.6382561885076
 20
123.6167596775341
 30
0.0
 11
230.1382561885076
 21
123.6167596775341
 31
0.0
  0
LINE
  5
1C7
330
1F
100
AcDbEntity
  8
Sichtbare_Kanten_TC_020513_DIN_
  6
Continuous
 62
     7
100
AcDbLine
 10
227.7382561885075
 20
122.2167596775341
 30
0.0
 11
229.6382561885076
 21
122.2167596775341
 31
0.0
  0
LINE
  5
1C8
330
1F
100
AcDbEntity
  8
Sichtbare_Kanten_TC_020513_DIN_
  6
Continuous
 62
     7
100
AcDbLine
 10
229.6382561885076
 20
123.6167596775341
 30
0.0
 11
227.7382561885075
 21
123.6167596775341
 31
0.0
  0
LINE
  5
1C9
330
1F
100
AcDbEntity
  8
Sichtbare_Kanten_TC_020513_DIN_
  6
Continuous
 62
     7
100
AcDbLine
 10
227.7382561885075
 20
122.2167596775341
 30
0.0
 11
227.2382561885075
 21
122.2167596775341
 31
0.0
  0
LINE
  5
1CA
330
1F
100
AcDbEntity
  8
Sichtbare_Kanten_TC_020513_DIN_
  6
Continuous
 62
     7
100
AcDbLine
 10
227.2382561885075
 20
123.6167596775341
 30
0.0
 11
227.7382561885075
 21
123.6167596775341
 31
0.0
  0
LINE
  5
1CB
330
1F
100
AcDbEntity
  8
Sichtbare_Kanten_TC_020513_DIN_
  6
Continuous
 62
     7
100
AcDbLine
 10
227.2382561885075
 20
123.6167596775341
 30
0.0
 11
227.2382561885075
 21
122.2167596775341
 31
0.0
  0
LINE
  5
1CC
330
1F
100
AcDbEntity
  8
Sichtbare_Kanten_TC_020513_DIN_
  6
Continuous
 62
     7
100
AcDbLine
 10
261.9623005616367
 20
131.6200444538621
 30
0.0
 11
261.3358273480486
 21
132.9635205959161
 31
0.0
  0
LINE
  5
1CD
330
1F
100
AcDbEntity
  8
Sichtbare_Kanten_TC_020513_DIN_
  6
Continuous
 62
     7
100
AcDbLine
 10
263.2311314634886
 20
132.2117100202991
 30
0.0
 11
261.9623005616367
 21
131.6200444538621
 31
0.0
  0
LINE
  5
1CE
330
1F
100
AcDbEntity
  8
Sichtbare_Kanten_TC_020513_DIN_
  6
Continuous
 62
     7
100
AcDbLine
 10
262.6046582498996
 20
133.5551861623531
 30
0.0
 11
263.2311314634886
 21
132.2117100202991
 31
0.0
  0
LINE
  5
1CF
330
1F
100
AcDbEntity
  8
Sichtbare_Kanten_TC_020513_DIN_
  6
Continuous
 62
     7
100
AcDbLine
 10
258.7672316874006
 20
138.4718917661651
 30
0.0
 11
261.3358273480486
 21
132.9635205959161
 31
0.0
  0
LINE
  5
1D0
330
1F
100
AcDbEntity
  8
Sichtbare_Kanten_TC_020513_DIN_
  6
Continuous
 62
     7
100
AcDbLine
 10
262.6046582498996
 20
133.5551861623531
 30
0.0
 11
260.0360625892516
 21
139.0635573326021
 31
0.0
  0
LINE
  5
1D1
330
1F
100
AcDbEntity
  8
Sichtbare_Kanten_TC_020513_DIN_
  6
Continuous
 62
     7
100
AcDbLine
 10
259.4777735004916
 20
138.8032228550491
 30
0.0
 11
258.7672316874006
 21
138.4718917661651
 31
0.0
  0
LINE
  5
1D2
330
1F
100
AcDbEntity
  8
Sichtbare_Kanten_TC_020513_DIN_
  6
Continuous
 62
     7
100
AcDbLine
 10
260.0360625892516
 20
139.0635573326021
 30
0.0
 11
259.4777735004916
 21
138.8032228550491
 31
0.0
  0
LINE
  5
1D3
330
1F
100
AcDbEntity
  8
Sichtbare_Kanten_TC_020513_DIN_
  6
Continuous
 62
     7
100
AcDbLine
 10
259.2888896381606
 20
139.6552228990391
 30
0.0
 11
259.9048934911026
 21
139.6552228990391
 31
0.0
  0
LINE
  5
1D4
330
1F
100
AcDbEntity
  8
Sichtbare_Kanten_TC_020513_DIN_
  6
Continuous
 62
     7
100
AcDbLine
 10
258.5048934911025
 20
139.6552228990391
 30
0.0
 11
259.2888896381606
 21
139.6552228990391
 31
0.0
  0
LINE
  5
1D5
330
1F
100
AcDbEntity
  8
Sichtbare_Kanten_TC_020513_DIN_
  6
Continuous
 62
     7
100
AcDbLine
 10
227.2382561885086
 20
123.7167596775341
 30
0.0
 11
227.2382561885075
 21
123.6167596775341
 31
0.0
  0
LINE
  5
1D6
330
1F
100
AcDbEntity
  8
Sichtbare_Kanten_TC_020513_DIN_
  6
Continuous
 62
     7
100
AcDbLine
 10
230.1382561885076
 20
123.6167596775341
 30
0.0
 11
230.1382561885085
 21
123.7167596775341
 31
0.0
  0
LINE
  5
1D7
330
1F
100
AcDbEntity
  8
Sichtbare_Kanten_TC_020513_DIN_
  6
Continuous
 62
     7
100
AcDbLine
 10
261.3048934911036
 20
151.6480383604091
 30
0.0
 11
261.3048934911036
 21
151.0320372301271
 31
0.0
  0
LINE
  5
1D8
330
1F
100
AcDbEntity
  8
Sichtbare_Kanten_TC_020513_DIN_
  6
Continuous
 62
     7
100
AcDbLine
 10
261.3048934911036
 20
152.4320372301271
 30
0.0
 11
261.3048934911036
 21
151.6480383604091
 31
0.0
  0
LINE
  5
1D9
330
1F
100
AcDbEntity
  8
Sichtbare_Kanten_TC_020513_DIN_
  6
Continuous
 62
     7
100
AcDbLine
 10
246.8782561885056
 20
97.24441459254162
 30
0.0
 11
246.8782561885056
 21
81.85441459254172
 31
0.0
  0
LINE
  5
1DA
330
1F
100
AcDbEntity
  8
Sichtbare_Kanten_TC_020513_DIN_
  6
Continuous
 62
     7
100
AcDbLine
 10
216.5982561885056
 20
81.85441459254172
 30
0.0
 11
216.5982561885056
 21
97.24441459254162
 31
0.0
  0
LINE
  5
1DB
330
1F
100
AcDbEntity
  8
Sichtbare_Kanten_TC_020513_DIN_
  6
Continuous
 62
     7
100
AcDbLine
 10
260.2382561885055
 20
77.85441459254172
 30
0.0
 11
203.2382561885056
 21
77.85441459254172
 31
0.0
  0
LINE
  5
1DC
330
1F
100
AcDbEntity
  8
Sichtbare_Kanten_TC_020513_DIN_
  6
Continuous
 62
     7
100
AcDbLine
 10
216.5982561885056
 20
81.85441459254172
 30
0.0
 11
203.2382561885056
 21
81.85441459254172
 31
0.0
  0
LINE
  5
1DD
330
1F
100
AcDbEntity
  8
Sichtbare_Kanten_TC_020513_DIN_
  6
Continuous
 62
     7
100
AcDbLine
 10
260.2382561885055
 20
81.85441459254172
 30
0.0
 11
246.8782561885056
 21
81.85441459254172
 31
0.0
  0
LINE
  5
1DE
330
1F
100
AcDbEntity
  8
Sichtbare_Kanten_TC_020513_DIN_
  6
Continuous
 62
     7
100
AcDbLine
 10
203.2382561885056
 20
77.85441459254172
 30
0.0
 11
203.2382561885056
 21
81.85441459254172
 31
0.0
  0
LINE
  5
1DF
330
1F
100
AcDbEntity
  8
Sichtbare_Kanten_TC_020513_DIN_
  6
Continuous
 62
     7
100
AcDbLine
 10
260.2382561885055
 20
77.85441459254172
 30
0.0
 11
260.2382561885055
 21
81.85441459254172
 31
0.0
  0
LINE
  5
1E0
330
1F
100
AcDbEntity
  8
Sichtbare_Kanten_TC_020513_DIN_
  6
Continuous
 62
     7
100
AcDbLine
 10
209.6882561885105
 20
140.8544145925421
 30
0.0
 11
209.6882561885105
 21
136.8544145925421
 31
0.0
  0
LINE
  5
1E1
330
1F
100
AcDbEntity
  8
Sichtbare_Kanten_TC_020513_DIN_
  6
Continuous
 62
     7
100
AcDbLine
 10
215.4882561885096
 20
140.8544145925421
 30
0.0
 11
209.6882561885105
 21
140.8544145925421
 31
0.0
  0
LINE
  5
1E2
330
1F
100
AcDbEntity
  8
Sichtbare_Kanten_TC_020513_DIN_
  6
Continuous
 62
     7
100
AcDbLine
 10
215.4882561885096
 20
140.8544145925421
 30
0.0
 11
234.7382561885096
 21
140.8544145925421
 31
0.0
  0
LINE
  5
1E3
330
1F
100
AcDbEntity
  8
Sichtbare_Kanten_TC_020513_DIN_
  6
Continuous
 62
     7
100
AcDbLine
 10
245.8754231506875
 20
140.8544145925421
 30
0.0
 11
247.9882561885096
 21
140.8544145925421
 31
0.0
  0
LINE
  5
1E4
330
1F
100
AcDbEntity
  8
Sichtbare_Kanten_TC_020513_DIN_
  6
Continuous
 62
     7
100
AcDbLine
 10
253.7882561885106
 20
140.8544145925421
 30
0.0
 11
253.7882561885106
 21
136.8544145925421
 31
0.0
  0
LINE
  5
1E5
330
1F
100
AcDbEntity
  8
Sichtbare_Kanten_TC_020513_DIN_
  6
Continuous
 62
     7
100
AcDbLine
 10
253.7882561885106
 20
140.8544145925421
 30
0.0
 11
247.9882561885096
 21
140.8544145925421
 31
0.0
  0
LINE
  5
1E6
330
1F
100
AcDbEntity
  8
Sichtbare_Kanten_TC_020513_DIN_
  6
Continuous
 62
     7
100
AcDbLine
 10
209.4882561885106
 20
136.8544145925421
 30
0.0
 11
215.4882561885096
 21
136.8544145925421
 31
0.0
  0
LINE
  5
1E7
330
1F
100
AcDbEntity
  8
Sichtbare_Kanten_TC_020513_DIN_
  6
Continuous
 62
     7
100
AcDbLine
 10
209.4882561885106
 20
81.85441459254172
 30
0.0
 11
209.4882561885106
 21
136.8544145925421
 31
0.0
  0
LINE
  5
1E8
330
1F
100
AcDbEntity
  8
Sichtbare_Kanten_TC_020513_DIN_
  6
Continuous
 62
     7
100
AcDbLine
 10
247.9882561885096
 20
136.8544145925421
 30
0.0
 11
241.1225893805025
 21
136.8544145925421
 31
0.0
  0
LINE
  5
1E9
330
1F
100
AcDbEntity
  8
Sichtbare_Kanten_TC_020513_DIN_
  6
Continuous
 62
     7
100
AcDbLine
 10
225.4137008681726
 20
136.8544145925421
 30
0.0
 11
215.4882561885096
 21
136.8544145925421
 31
0.0
  0
LINE
  5
1EA
330
1F
100
AcDbEntity
  8
Sichtbare_Kanten_TC_020513_DIN_
  6
Continuous
 62
     7
100
AcDbLine
 10
253.9882561885105
 20
81.85441459254172
 30
0.0
 11
253.9882561885105
 21
127.8544145925421
 31
0.0
  0
LINE
  5
1EB
330
1F
100
AcDbEntity
  8
Sichtbare_Kanten_TC_020513_DIN_
  6
Continuous
 62
     7
100
AcDbLine
 10
253.9882561885105
 20
134.8544145925421
 30
0.0
 11
253.9882561885105
 21
136.8544145925421
 31
0.0
  0
LINE
  5
1EC
330
1F
100
AcDbEntity
  8
Sichtbare_Kanten_TC_020513_DIN_
  6
Continuous
 62
     7
100
AcDbLine
 10
247.9882561885096
 20
136.8544145925421
 30
0.0
 11
253.9882561885105
 21
136.8544145925421
 31
0.0
  0
LINE
  5
1ED
330
1F
100
AcDbEntity
  8
Sichtbare_Kanten_TC_020513_DIN_
  6
Continuous
 62
     7
100
AcDbLine
 10
262.9271450773986
 20
121.6377772899511
 30
0.0
 11
266.0382561885116
 21
121.6377772899511
 31
0.0
  0
LINE
  5
1EE
330
1F
100
AcDbEntity
  8
Sichtbare_Kanten_TC_020513_DIN_
  6
Continuous
 62
     7
100
AcDbLine
 10
262.9271450773986
 20
121.6377772899511
 30
0.0
 11
262.5382561885095
 21
121.6377772899511
 31
0.0
  0
LINE
  5
1EF
330
1F
100
AcDbEntity
  8
Sichtbare_Kanten_TC_020513_DIN_
  6
Continuous
 62
     7
100
AcDbLine
 10
255.5382561885116
 20
121.6377772899511
 30
0.0
 11
255.5006012735036
 21
121.6377772899511
 31
0.0
  0
LINE
  5
1F0
330
1F
100
AcDbEntity
  8
Sichtbare_Kanten_TC_020513_DIN_
  6
Continuous
 62
     7
100
AcDbLine
 10
266.0382561885116
 20
121.6377772899511
 30
0.0
 11
266.0382561885116
 21
123.0377772899511
 31
0.0
  0
LINE
  5
1F1
330
1F
100
AcDbEntity
  8
Sichtbare_Kanten_TC_020513_DIN_
  6
Continuous
 62
     7
100
AcDbLine
 10
255.4006012735046
 20
120.7001223749441
 30
0.0
 11
254.0006012735036
 21
120.7001223749441
 31
0.0
  0
LINE
  5
1F2
330
1F
100
AcDbEntity
  8
Sichtbare_Kanten_TC_020513_DIN_
  6
Continuous
 62
     7
100
AcDbLine
 10
254.0006012735036
 20
121.5377772899511
 30
0.0
 11
254.0006012735036
 21
120.7001223749441
 31
0.0
  0
LINE
  5
1F3
330
1F
100
AcDbEntity
  8
Sichtbare_Kanten_TC_020513_DIN_
  6
Continuous
 62
     7
100
AcDbLine
 10
255.4006012735046
 20
121.5377772899511
 30
0.0
 11
255.4006012735046
 21
120.7001223749441
 31
0.0
  0
LINE
  5
1F4
330
1F
100
AcDbEntity
  8
Sichtbare_Kanten_TC_020513_DIN_
  6
Continuous
 62
     7
100
AcDbLine
 10
255.5382561885116
 20
123.0377772899511
 30
0.0
 11
255.5006012735036
 21
123.0377772899511
 31
0.0
  0
LINE
  5
1F5
330
1F
100
AcDbEntity
  8
Sichtbare_Kanten_TC_020513_DIN_
  6
Continuous
 62
     7
100
AcDbLine
 10
262.9271450773986
 20
123.0377772899511
 30
0.0
 11
262.5382561885095
 21
123.0377772899511
 31
0.0
  0
LINE
  5
1F6
330
1F
100
AcDbEntity
  8
Sichtbare_Kanten_TC_020513_DIN_
  6
Continuous
 62
     7
100
AcDbLine
 10
262.9271450773986
 20
123.0377772899511
 30
0.0
 11
266.0382561885116
 21
123.0377772899511
 31
0.0
  0
LINE
  5
1F7
330
1F
100
AcDbEntity
  8
Sichtbare_Kanten_TC_020513_DIN_
  6
Continuous
 62
     7
100
AcDbLine
 10
262.5382561885075
 20
124.4377772899511
 30
0.0
 11
262.5382561885075
 21
126.8544145925421
 31
0.0
  0
LINE
  5
1F8
330
1F
100
AcDbEntity
  8
Sichtbare_Kanten_TC_020513_DIN_
  6
Continuous
 62
     7
100
AcDbLine
 10
254.5382561885075
 20
134.8544145925421
 30
0.0
 11
241.7382561885075
 21
134.8544145925421
 31
0.0
  0
LINE
  5
1F9
330
1F
100
AcDbEntity
  8
Sichtbare_Kanten_TC_020513_DIN_
  6
Continuous
 62
     7
100
AcDbLine
 10
224.7382561885075
 20
133.8544145925421
 30
0.0
 11
224.7382561885075
 21
120.3544145925421
 31
0.0
  0
LINE
  5
1FA
330
1F
100
AcDbEntity
  8
Sichtbare_Kanten_TC_020513_DIN_
  6
Continuous
 62
     7
100
AcDbLine
 10
243.7382561885075
 20
127.8544145925421
 30
0.0
 11
254.5382561885075
 21
127.8544145925421
 31
0.0
  0
LINE
  5
1FB
330
1F
100
AcDbEntity
  8
Sichtbare_Kanten_TC_020513_DIN_
  6
Continuous
 62
     7
100
AcDbLine
 10
255.5382561885075
 20
126.8544145925421
 30
0.0
 11
255.5382561885075
 21
124.4377772899511
 31
0.0
  0
LINE
  5
1FC
330
1F
100
AcDbEntity
  8
Sichtbare_Kanten_TC_020513_DIN_
  6
Continuous
 62
     7
100
AcDbLine
 10
262.5382561885095
 20
121.6377772899511
 30
0.0
 11
255.5382561885116
 21
121.6377772899511
 31
0.0
  0
LINE
  5
1FD
330
1F
100
AcDbEntity
  8
Sichtbare_Kanten_TC_020513_DIN_
  6
Continuous
 62
     7
100
AcDbLine
 10
255.5382561885116
 20
121.6377772899511
 30
0.0
 11
255.5382561885075
 21
124.4377772899511
 31
0.0
  0
LINE
  5
1FE
330
1F
100
AcDbEntity
  8
Sichtbare_Kanten_TC_020513_DIN_
  6
Continuous
 62
     7
100
AcDbLine
 10
262.5382561885075
 20
124.4377772899511
 30
0.0
 11
262.5382561885095
 21
121.6377772899511
 31
0.0
  0
LINE
  5
1FF
330
1F
100
AcDbEntity
  8
Mittelpunktmarkierung_TC_020513_DIN_
  6
CHAIN
 62
     7
100
AcDbLine
 10
248.7902561885366
 20
97.24441459254172
 30
0.0
 11
214.6862561885365
 21
97.24441459254172
 31
0.0
  0
LINE
  5
200
330
1F
100
AcDbEntity
  8
Mittelpunktmarkierung_TC_020513_DIN_
  6
CHAIN
 62
     7
100
AcDbLine
 10
231.7382561885366
 20
114.2964145925421
 30
0.0
 11
231.7382561885366
 21
80.19241459254171
 31
0.0
  0
LINE
  5
201
330
1F
100
AcDbEntity
  8
Mittelpunktmarkierung_TC_020513_DIN_
  6
CHAIN
 62
     7
100
AcDbLine
 10
232.9882561885075
 20
122.8544145925421
 30
0.0
 11
224.4882561885075
 21
122.8544145925421
 31
0.0
  0
LINE
  5
202
330
1F
100
AcDbEntity
  8
Mittelpunktmarkierung_TC_020513_DIN_
  6
CHAIN
 62
     7
100
AcDbLine
 10
228.7382561885075
 20
127.1044145925421
 30
0.0
 11
228.7382561885075
 21
118.6044145925421
 31
0.0
  0
LINE
  5
203
330
1F
100
AcDbEntity
  8
Mittelpunktmarkierung_TC_020513_DIN_
  6
CHAIN
 62
     7
100
AcDbLine
 10
238.9382561885076
 20
133.8544145925421
 30
0.0
 11
224.5382561885076
 21
133.8544145925421
 31
0.0
  0
LINE
  5
204
330
1F
100
AcDbEntity
  8
Mittelpunktmarkierung_TC_020513_DIN_
  6
CHAIN
 62
     7
100
AcDbLine
 10
231.7382561885075
 20
141.0544145925411
 30
0.0
 11
231.7382561885075
 21
126.6544145925421
 31
0.0
  0
LINE
  5
205
330
1F
100
AcDbEntity
  8
Mittellinie_TC_020513_DIN_
  6
CHAIN
 62
     7
100
AcDbLine
 10
254.2382561885075
 20
75.35441459254172
 30
0.0
 11
254.2382561885075
 21
84.35441459254172
 31
0.0
  0
LINE
  5
206
330
1F
100
AcDbEntity
  8
Mittellinie_TC_020513_DIN_
  6
CHAIN
 62
     7
100
AcDbLine
 10
209.2382561885075
 20
75.35441459254172
 30
0.0
 11
209.2382561885075
 21
84.35441459254172
 31
0.0
  0
LINE
  5
207
330
1F
100
AcDbEntity
  8
Mittellinie_TC_020513_DIN_
  6
CHAIN
 62
     7
100
AcDbLine
 10
135.2282769046236
 20
133.8544145925421
 30
0.0
 11
143.4882769046236
 21
133.8544145925421
 31
0.0
  0
LINE
  5
208
330
1F
100
AcDbEntity
  8
Mittellinie_TC_020513_DIN_
  6
CHAIN
 62
     7
100
AcDbLine
 10
139.8882769046236
 20
133.8544145925421
 30
0.0
 11
145.4882769046236
 21
133.8544145925421
 31
0.0
  0
LINE
  5
209
330
1F
100
AcDbEntity
  8
Mittellinie_TC_020513_DIN_
  6
CHAIN
 62
     7
100
AcDbLine
 10
38.2882769046239
 20
133.8544145925421
 30
0.0
 11
46.54827690462389
 21
133.8544145925421
 31
0.0
  0
LINE
  5
20A
330
1F
100
AcDbEntity
  8
Mittellinie_TC_020513_DIN_
  6
CHAIN
 62
     7
100
AcDbLine
 10
36.2882769046239
 20
133.8544145925421
 30
0.0
 11
41.88827690462387
 21
133.8544145925421
 31
0.0
  0
LINE
  5
20B
330
1F
100
AcDbEntity
  8
Mittellinie_TC_020513_DIN_
  6
CHAIN
 62
     7
100
AcDbLine
 10
29.88827690462387
 20
97.24441459254172
 30
0.0
 11
47.88827690462387
 21
97.24441459254172
 31
0.0
  0
LINE
  5
20C
330
1F
100
AcDbEntity
  8
Mittellinie_TC_020513_DIN_
  6
CHAIN
 62
     7
100
AcDbLine
 10
38.38827690462387
 20
75.35441459254172
 30
0.0
 11
38.38827690462387
 21
84.35441459254172
 31
0.0
  0
LINE
  5
20D
330
1F
100
AcDbEntity
  8
Mittellinie_TC_020513_DIN_
  6
CHAIN
 62
     7
100
AcDbLine
 10
143.3882769046236
 20
75.35441459254172
 30
0.0
 11
143.3882769046236
 21
84.35441459254172
 31
0.0
  0
LINE
  5
20E
330
1F
100
AcDbEntity
  8
Mittellinie_TC_020513_DIN_
  6
CHAIN
 62
     7
100
AcDbLine
 10
133.8882769046236
 20
97.24441459254172
 30
0.0
 11
151.8882769046236
 21
97.24441459254172
 31
0.0
  0
LINE
  5
20F
330
1F
100
AcDbEntity
  8
Mittellinie_TC_020513_DIN_
  6
CHAIN
 62
     7
100
AcDbLine
 10
90.88827690462386
 20
73.56909897766941
 30
0.0
 11
90.88827690462386
 21
156.5751387310541
 31
0.0
  0
ARC
  5
4C8
330
1F
100
AcDbEntity
  8
Sichtbare_Kanten_TC_020513_DIN_
  6
Continuous
 62
     7
100
AcDbCircle
 10
93.88827690462386
 20
144.3544145925421
 30
0.0
 40
0.25
100
AcDbArc
 50
270.0
 51
90.0
  0
ARC
  5
4C9
330
1F
100
AcDbEntity
  8
Sichtbare_Kanten_TC_020513_DIN_
  6
Continuous
 62
     7
100
AcDbCircle
 10
93.88827690462386
 20
143.2010490744531
 30
0.0
 40
0.2499999999998662
100
AcDbArc
 50
299.9816393688645
 51
119.9816393688645
  0
ARC
  5
4CA
330
1F
100
AcDbEntity
  8
Sichtbare_Kanten_TC_020513_DIN_
  6
Continuous
 62
     7
100
AcDbCircle
 10
92.88827690462386
 20
142.6241259975301
 30
0.0
 40
0.25
100
AcDbArc
 50
180.0
 51
299.9816393688678
  0
ARC
  5
4CB
330
1F
100
AcDbEntity
  8
Sichtbare_Kanten_TC_020513_DIN_
  6
Continuous
 62
     7
100
AcDbCircle
 10
93.88827690462386
 20
145.5077801106301
 30
0.0
 40
0.2499999999998662
100
AcDbArc
 50
240.0183606311355
 51
60.01836063113548
  0
ARC
  5
4CC
330
1F
100
AcDbEntity
  8
Sichtbare_Kanten_TC_020513_DIN_
  6
Continuous
 62
     7
100
AcDbCircle
 10
92.88827690462386
 20
146.0847031875531
 30
0.0
 40
0.2499999999998662
100
AcDbArc
 50
60.01836063113548
 51
180.0
  0
ARC
  5
4CD
330
1F
100
AcDbEntity
  8
Sichtbare_Kanten_TC_020513_DIN_
  6
Continuous
 62
     7
100
AcDbCircle
 10
87.83827690462385
 20
143.2298952283001
 30
0.0
 40
0.25
100
AcDbArc
 50
180.0
 51
0.0
  0
ARC
  5
4CE
330
1F
100
AcDbEntity
  8
Sichtbare_Kanten_TC_020513_DIN_
  6
Continuous
 62
     7
100
AcDbCircle
 10
87.83827690462385
 20
145.4789339567841
 30
0.0
 40
0.25
100
AcDbArc
 50
0.0
 51
180.0
  0
ARC
  5
4CF
330
1F
100
AcDbEntity
  8
Sichtbare_Kanten_TC_020513_DIN_
  6
Continuous
 62
     7
100
AcDbCircle
 10
90.88827690462386
 20
141.4702798436841
 30
0.0
 40
0.2500000000002052
100
AcDbArc
 50
240.0183614849488
 51
60.01836063113548
  0
ARC
  5
4D0
330
1F
100
AcDbEntity
  8
Sichtbare_Kanten_TC_020513_DIN_
  6
Continuous
 62
     7
100
AcDbCircle
 10
88.83827690462385
 20
142.6529721513761
 30
0.0
 40
0.25
100
AcDbArc
 50
180.0
 51
240.0183606311355
  0
ARC
  5
4D1
330
1F
100
AcDbEntity
  8
Sichtbare_Kanten_TC_020513_DIN_
  6
Continuous
 62
     7
100
AcDbCircle
 10
88.83827690462385
 20
146.0558570337071
 30
0.0
 40
0.25
100
AcDbArc
 50
0.0
 51
180.0
  0
ARC
  5
4D2
330
1F
100
AcDbEntity
  8
Sichtbare_Kanten_TC_020513_DIN_
  6
Continuous
 62
     7
100
AcDbCircle
 10
91.88827690462386
 20
146.6616262644761
 30
0.0
 40
0.25
100
AcDbArc
 50
0.0
 51
144.0904238228751
  0
ARC
  5
4D3
330
1F
100
AcDbEntity
  8
Sichtbare_Kanten_TC_020513_DIN_
  6
Continuous
 62
     7
100
AcDbCircle
 10
91.88827690462386
 20
142.0472029206071
 30
0.0
 40
0.25
100
AcDbArc
 50
180.0
 51
0.0
  0
ARC
  5
4D4
330
1F
100
AcDbEntity
  8
Sichtbare_Kanten_TC_020513_DIN_
  6
Continuous
 62
     7
100
AcDbCircle
 10
89.88827690462386
 20
146.6616262644761
 30
0.0
 40
0.2500000000002519
100
AcDbArc
 50
35.90957617712492
 51
180.0
  0
ARC
  5
4D5
330
1F
100
AcDbEntity
  8
Sichtbare_Kanten_TC_020513_DIN_
  6
Continuous
 62
     7
100
AcDbCircle
 10
89.88827690462386
 20
143.2298952283001
 30
0.0
 40
0.25
100
AcDbArc
 50
180.0
 51
0.0
  0
ARC
  5
4D6
330
1F
100
AcDbEntity
  8
Sichtbare_Kanten_TC_020513_DIN_
  6
Continuous
 62
     7
100
AcDbCircle
 10
128.1216396020336
 20
140.9653999275371
 30
0.0
 40
0.25
100
AcDbArc
 50
90.0
 51
165.0000000001937
  0
ARC
  5
4D7
330
1F
100
AcDbEntity
  8
Sichtbare_Kanten_TC_020513_DIN_
  6
Continuous
 62
     7
100
AcDbCircle
 10
135.6216396020336
 20
150.2153999275371
 30
0.0
 40
1.0
100
AcDbArc
 50
90.0
 51
140.0000000000288
  0
ARC
  5
4D8
330
1F
100
AcDbEntity
  8
Sichtbare_Kanten_TC_020513_DIN_
  6
Continuous
 62
     7
100
AcDbCircle
 10
133.0108250233686
 20
150.2153999275371
 30
0.0
 40
1.0
100
AcDbArc
 50
270.0
 51
319.9999999999798
  0
ARC
  5
4D9
330
1F
100
AcDbEntity
  8
Sichtbare_Kanten_TC_020513_DIN_
  6
Continuous
 62
     7
100
AcDbCircle
 10
128.1216396020336
 20
150.7153999275371
 30
0.0
 40
1.500000000000735
100
AcDbArc
 50
226.2398789709942
 51
270.0
  0
ARC
  5
4DA
330
1F
100
AcDbEntity
  8
Sichtbare_Kanten_TC_020513_DIN_
  6
Continuous
 62
     7
100
AcDbCircle
 10
53.65491420721457
 20
150.7153999275371
 30
0.0
 40
1.5
100
AcDbArc
 50
270.0
 51
313.7601210289966
  0
ARC
  5
4DB
330
1F
100
AcDbEntity
  8
Sichtbare_Kanten_TC_020513_DIN_
  6
Continuous
 62
     7
100
AcDbCircle
 10
48.76572878587916
 20
150.2153999275371
 30
0.0
 40
1.000000000000304
100
AcDbArc
 50
220.0000000000213
 51
270.0
  0
ARC
  5
4DC
330
1F
100
AcDbEntity
  8
Sichtbare_Kanten_TC_020513_DIN_
  6
Continuous
 62
     7
100
AcDbCircle
 10
46.15491420721457
 20
150.2153999275371
 30
0.0
 40
0.9999999999996568
100
AcDbArc
 50
39.99999999997587
 51
90.0
  0
ARC
  5
4DD
330
1F
100
AcDbEntity
  8
Sichtbare_Kanten_TC_020513_DIN_
  6
Continuous
 62
     7
100
AcDbCircle
 10
53.65491420721457
 20
140.9653999275371
 30
0.0
 40
0.2499999999998453
100
AcDbArc
 50
14.99999999985561
 51
90.0
  0
ARC
  5
4DE
330
1F
100
AcDbEntity
  8
Sichtbare_Kanten_TC_020513_DIN_
  6
Continuous
 62
     7
100
AcDbCircle
 10
41.2882769046239
 20
123.7167596775341
 30
0.0
 40
0.0999999999999943
100
AcDbArc
 50
270.0
 51
0.0
  0
ARC
  5
4DF
330
1F
100
AcDbEntity
  8
Sichtbare_Kanten_TC_020513_DIN_
  6
Continuous
 62
     7
100
AcDbCircle
 10
41.2882769046239
 20
123.7167596775341
 30
0.0
 40
1.499999999999817
100
AcDbArc
 50
333.0858507981494
 51
0.0
  0
ARC
  5
4E0
330
1F
100
AcDbEntity
  8
Sichtbare_Kanten_TC_020513_DIN_
  6
Continuous
 62
     7
100
AcDbCircle
 10
140.4882769046236
 20
123.7167596775341
 30
0.0
 40
0.0999999999999943
100
AcDbArc
 50
180.0
 51
270.0
  0
ARC
  5
4E1
330
1F
100
AcDbEntity
  8
Sichtbare_Kanten_TC_020513_DIN_
  6
Continuous
 62
     7
100
AcDbCircle
 10
140.4882769046236
 20
123.7167596775341
 30
0.0
 40
1.5
100
AcDbArc
 50
180.0
 51
206.914149201852
  0
ARC
  5
4E2
330
1F
100
AcDbEntity
  8
Sichtbare_Kanten_TC_020513_DIN_
  6
Continuous
 62
     7
100
AcDbCircle
 10
38.08827690462385
 20
137.8544145925421
 30
0.0
 40
0.7000000000000526
100
AcDbArc
 50
0.0
 51
180.0
  0
ARC
  5
4E3
330
1F
100
AcDbEntity
  8
Sichtbare_Kanten_TC_020513_DIN_
  6
Continuous
 62
     7
100
AcDbCircle
 10
38.08827690462385
 20
129.8544145925421
 30
0.0
 40
0.6999999999999744
100
AcDbArc
 50
180.0
 51
0.0
  0
ARC
  5
4E4
330
1F
100
AcDbEntity
  8
Sichtbare_Kanten_TC_020513_DIN_
  6
Continuous
 62
     7
100
AcDbCircle
 10
143.6882769046235
 20
129.8544145925421
 30
0.0
 40
0.6999999999999034
100
AcDbArc
 50
180.0
 51
0.0
  0
ARC
  5
4E5
330
1F
100
AcDbEntity
  8
Sichtbare_Kanten_TC_020513_DIN_
  6
Continuous
 62
     7
100
AcDbCircle
 10
143.6882769046236
 20
137.8544145925421
 30
0.0
 40
0.700000000000017
100
AcDbArc
 50
0.0
 51
180.0
  0
ARC
  5
4E6
330
1F
100
AcDbEntity
  8
Sichtbare_Kanten_TC_020513_DIN_
  6
Continuous
 62
     7
100
AcDbCircle
 10
101.1716396020336
 20
121.2001223749431
 30
0.0
 40
0.5
100
AcDbArc
 50
180.0
 51
270.0
  0
ARC
  5
4E7
330
1F
100
AcDbEntity
  8
Sichtbare_Kanten_TC_020513_DIN_
  6
Continuous
 62
     7
100
AcDbCircle
 10
139.5882769046236
 20
124.4377772899511
 30
0.0
 40
2.799999999999997
100
AcDbArc
 50
270.0
 51
0.0
  0
ARC
  5
4E8
330
1F
100
AcDbEntity
  8
Sichtbare_Kanten_TC_020513_DIN_
  6
Continuous
 62
     7
100
AcDbCircle
 10
139.5882769046236
 20
124.4377772899511
 30
0.0
 40
1.400000000000006
100
AcDbArc
 50
270.0
 51
0.0
  0
ARC
  5
4E9
330
1F
100
AcDbEntity
  8
Sichtbare_Kanten_TC_020513_DIN_
  6
Continuous
 62
     7
100
AcDbCircle
 10
80.60491420721456
 20
121.2001223749431
 30
0.0
 40
0.5
100
AcDbArc
 50
270.0
 51
0.0
  0
ARC
  5
4EA
330
1F
100
AcDbEntity
  8
Sichtbare_Kanten_TC_020513_DIN_
  6
Continuous
 62
     7
100
AcDbCircle
 10
42.18827690462388
 20
124.4377772899511
 30
0.0
 40
2.800000000000011
100
AcDbArc
 50
180.0
 51
270.0
  0
ARC
  5
4EB
330
1F
100
AcDbEntity
  8
Sichtbare_Kanten_TC_020513_DIN_
  6
Continuous
 62
     7
100
AcDbCircle
 10
42.18827690462388
 20
124.4377772899511
 30
0.0
 40
1.399999999999984
100
AcDbArc
 50
180.0
 51
270.0
  0
ARC
  5
4EC
330
1F
100
AcDbEntity
  8
Sichtbare_Kanten_TC_020513_DIN_
  6
Continuous
 62
     7
100
AcDbCircle
 10
241.6244992992736
 20
136.8544145925421
 30
0.0
 40
0.4999999999990187
100
AcDbArc
 50
128.3440606646491
 51
175.0000000000955
  0
ARC
  5
4ED
330
1F
100
AcDbEntity
  8
Sichtbare_Kanten_TC_020513_DIN_
  6
Continuous
 62
     7
100
AcDbCircle
 10
251.7382561885086
 20
144.8544145925421
 30
0.0
 40
0.4999999999997507
100
AcDbArc
 50
38.34406066456614
 51
128.3440606647283
  0
ARC
  5
4EE
330
1F
100
AcDbEntity
  8
Sichtbare_Kanten_TC_020513_DIN_
  6
Continuous
 62
     7
100
AcDbCircle
 10
255.7382561885086
 20
142.2153999275371
 30
0.0
 40
1.000000000000709
100
AcDbArc
 50
218.3440606646589
 51
270.0
  0
ARC
  5
4EF
330
1F
100
AcDbEntity
  8
Sichtbare_Kanten_TC_020513_DIN_
  6
Continuous
 62
     7
100
AcDbCircle
 10
235.4779745076805
 20
123.8544145925421
 30
0.0
 40
34.99999999999989
100
AcDbArc
 50
58.50330715785379
 51
90.0
  0
ARC
  5
4F0
330
1F
100
AcDbEntity
  8
Sichtbare_Kanten_TC_020513_DIN_
  6
Continuous
 62
     7
100
AcDbCircle
 10
227.4779745076805
 20
154.5544145925421
 30
0.0
 40
4.300000000000011
100
AcDbArc
 50
90.0
 51
298.9550243718556
  0
ARC
  5
4F1
330
1F
100
AcDbEntity
  8
Sichtbare_Kanten_TC_020513_DIN_
  6
Continuous
 62
     7
100
AcDbCircle
 10
231.7382561885086
 20
146.8544145925421
 30
0.0
 40
4.499999999999814
100
AcDbArc
 50
20.26853458426785
 51
118.9550243718632
  0
ARC
  5
4F2
330
1F
100
AcDbEntity
  8
Sichtbare_Kanten_TC_020513_DIN_
  6
Continuous
 62
     7
100
AcDbCircle
 10
236.5562184833806
 20
145.3544145925421
 30
0.0
 40
0.5000000000004035
100
AcDbArc
 50
325.2685345842171
 51
20.26853458427425
  0
ARC
  5
4F3
330
1F
100
AcDbEntity
  8
Sichtbare_Kanten_TC_020513_DIN_
  6
Continuous
 62
     7
100
AcDbCircle
 10
231.7382561885096
 20
97.24441459254162
 30
0.0
 40
15.13999999999598
100
AcDbArc
 50
0.0
 51
180.0
  0
ARC
  5
4F4
330
1F
100
AcDbEntity
  8
Sichtbare_Kanten_TC_020513_DIN_
  6
Continuous
 62
     7
100
AcDbCircle
 10
254.5382561885075
 20
126.8544145925421
 30
0.0
 40
8.0
100
AcDbArc
 50
0.0
 51
90.0
  0
ARC
  5
4F5
330
1F
100
AcDbEntity
  8
Sichtbare_Kanten_TC_020513_DIN_
  6
Continuous
 62
     7
100
AcDbCircle
 10
241.7382561885075
 20
135.3544145925421
 30
0.0
 40
0.5000000000004804
100
AcDbArc
 50
220.0290181764903
 51
270.0
  0
ARC
  5
4F6
330
1F
100
AcDbEntity
  8
Sichtbare_Kanten_TC_020513_DIN_
  6
Continuous
 62
     7
100
AcDbCircle
 10
226.0410208515766
 20
122.1693168387521
 30
0.0
 40
19.99999999999929
100
AcDbArc
 50
40.02901817645411
 51
64.00779443620983
  0
ARC
  5
4F7
330
1F
100
AcDbEntity
  8
Sichtbare_Kanten_TC_020513_DIN_
  6
Continuous
 62
     7
100
AcDbCircle
 10
231.7382561885075
 20
133.8544145925421
 30
0.0
 40
7.00000000000021
100
AcDbArc
 50
64.00779443620532
 51
180.0
  0
ARC
  5
4F8
330
1F
100
AcDbEntity
  8
Sichtbare_Kanten_TC_020513_DIN_
  6
Continuous
 62
     7
100
AcDbCircle
 10
225.2382561885075
 20
120.3544145925421
 30
0.0
 40
0.5
100
AcDbArc
 50
180.0
 51
251.6923269007843
  0
ARC
  5
4F9
330
1F
100
AcDbEntity
  8
Sichtbare_Kanten_TC_020513_DIN_
  6
Continuous
 62
     7
100
AcDbCircle
 10
229.7929904032236
 20
134.1204741679361
 30
0.0
 40
15.00000000000055
100
AcDbArc
 50
251.6923269007141
 51
334.1179484035668
  0
ARC
  5
4FA
330
1F
100
AcDbEntity
  8
Sichtbare_Kanten_TC_020513_DIN_
  6
Continuous
 62
     7
100
AcDbCircle
 10
243.7382561885075
 20
127.3544145925421
 30
0.0
 40
0.5
100
AcDbArc
 50
90.0
 51
154.1179484035528
  0
ARC
  5
4FB
330
1F
100
AcDbEntity
  8
Sichtbare_Kanten_TC_020513_DIN_
  6
Continuous
 62
     7
100
AcDbCircle
 10
254.5382561885075
 20
126.8544145925421
 30
0.0
 40
1.0
100
AcDbArc
 50
0.0
 51
90.0
  0
ARC
  5
4FC
330
1F
100
AcDbEntity
  8
Sichtbare_Kanten_TC_020513_DIN_
  6
Continuous
 62
     7
100
AcDbCircle
 10
255.5006012735036
 20
121.5377772899511
 30
0.0
 40
0.1000000000000085
100
AcDbArc
 50
90.0
 51
180.0
  0
ARC
  5
4FD
330
1F
100
AcDbEntity
  8
Sichtbare_Kanten_TC_020513_DIN_
  6
Continuous
 62
     7
100
AcDbCircle
 10
255.5006012735036
 20
121.5377772899511
 30
0.0
 40
1.5
100
AcDbArc
 50
90.0
 51
180.0
  0
ARC
  5
4FE
330
1F
100
AcDbEntity
  8
Stich_1-Linien_TC_020513_DIN_
  6
DASHED_SPACE
 62
     7
100
AcDbCircle
 10
228.7382561885075
 20
122.8544145925421
 30
0.0
 40
48.93394997172098
100
AcDbArc
 50
0.0
 51
44.03209973312351
  0
CIRCLE
  5
4FF
330
1F
100
AcDbEntity
  8
Sichtbare_Kanten_TC_020513_DIN_
  6
Continuous
 62
     7
100
AcDbCircle
 10
231.7382561885096
 20
97.24441459254162
 30
0.0
 40
10.38999999999999
  0
CIRCLE
  5
500
330
1F
100
AcDbEntity
  8
Sichtbare_Kanten_TC_020513_DIN_
  6
Continuous
 62
     7
100
AcDbCircle
 10
231.7382561885096
 20
97.24441459254162
 30
0.0
 40
13.38999999999598
  0
CIRCLE
  5
501
330
1F
100
AcDbEntity
  8
Sichtbare_Kanten_TC_020513_DIN_
  6
Continuous
 62
     7
100
AcDbCircle
 10
231.7382561885075
 20
133.8544145925421
 30
0.0
 40
4.700000000000102
  0
CIRCLE
  5
502
330
1F
100
AcDbEntity
  8
Sichtbare_Kanten_TC_020513_DIN_
  6
Continuous
 62
     7
100
AcDbCircle
 10
228.7382561885075
 20
122.8544145925421
 30
0.0
 40
1.75
  0
SPLINE
  5
503
330
1F
100
AcDbEntity
  8
Sichtbare_Kanten_TC_020513_DIN_
  6
Continuous
 62
     7
100
AcDbSpline
210
0.0
220
0.0
230
1.0
 70
     8
 71
     3
 72
    19
 73
    15
 74
    13
 42
0.000000001
 43
0.0000000001
 44
0.00000001
 40
0.0
 40
0.0
 40
0.0
 40
0.0
 40
0.3474606674142652
 40
0.6949175350292436
 40
0.8665696488942354
 40
1.038221191655152
 40
1.207484861389565
 40
1.376745209809352
 40
1.54325185585329
 40
1.709751057159916
 40
1.873443934533356
 40
2.037147336109277
 40
2.278188137687533
 40
2.518986528946289
 40
2.518986528946289
 40
2.518986528946289
 40
2.518986528946289
 10
123.7156619547695
 20
132.2117100202991
 30
0.0
 10
123.8315937246821
 20
132.2169669826912
 30
0.0
 10
124.0634559955306
 20
132.2274808646601
 30
0.0
 10
124.3455278017012
 20
132.2985541823726
 30
0.0
 10
124.5613119035353
 20
132.3791211581909
 30
0.0
 10
124.7160486518488
 20
132.4521149714356
 30
0.0
 10
124.863525440707
 20
132.5371611414819
 30
0.0
 10
125.001953547027
 20
132.6333208683482
 30
0.0
 10
125.130963834859
 20
132.7403525627168
 30
0.0
 10
125.2488851249473
 20
132.8568598742914
 30
0.0
 10
125.3555488504892
 20
132.9825963394272
 30
0.0
 10
125.4644240208186
 20
133.1378324978764
 30
0.0
 10
125.5695577370899
 20
133.3268549531268
 30
0.0
 10
125.6215370386001
 20
133.4791012889756
 30
0.0
 10
125.6475136073476
 20
133.5551861623531
 30
0.0
 11
123.7156619547695
 21
132.2117100202991
 31
0.0
 11
124.0620412740592
 21
132.2391013065387
 31
0.0
 11
124.3997022414204
 21
132.3210241150946
 31
0.0
 11
124.5604108605685
 21
132.3813332194956
 31
0.0
 11
124.715661954769
 21
132.4545544599297
 31
0.0
 11
124.8622592627284
 21
132.5391678121748
 31
0.0
 11
125.0012371741423
 21
132.635781506343
 31
0.0
 11
125.1293467453919
 21
132.7421412786753
 31
0.0
 11
125.2477508410074
 21
132.8591987622339
 31
0.0
 11
125.3535471463422
 21
132.9841087306067
 31
0.0
 11
125.4477127623379
 21
133.1180178073366
 31
0.0
 11
125.5629671800651
 21
133.329718275652
 31
0.0
 11
125.6475136073476
 21
133.5551861623531
 31
0.0
  0
SPLINE
  5
504
330
1F
100
AcDbEntity
  8
Sichtbare_Kanten_TC_020513_DIN_
  6
Continuous
 62
     7
100
AcDbSpline
210
0.0
220
0.0
230
1.0
 70
     8
 71
     3
 72
    19
 73
    15
 74
    13
 42
0.000000001
 43
0.0000000001
 44
0.00000001
 40
0.0
 40
0.0
 40
0.0
 40
0.0
 40
0.347460667414263
 40
0.694917535029248
 40
0.8665696488942398
 40
1.038221191655157
 40
1.207484861389583
 40
1.376745209809355
 40
1.543251855853292
 40
1.709751057159818
 40
1.873443934533063
 40
2.037147336108822
 40
2.278188137687353
 40
2.518986528946375
 40
2.518986528946375
 40
2.518986528946375
 40
2.518986528946375
 10
123.7156619547695
 20
131.6200444538621
 30
0.0
 10
123.8315937246821
 20
131.6253014162542
 30
0.0
 10
124.0634559955306
 20
131.635815298223
 30
0.0
 10
124.3455278017012
 20
131.7068886159355
 30
0.0
 10
124.5613119035352
 20
131.7874555917539
 30
0.0
 10
124.7160486518488
 20
131.8604494049986
 30
0.0
 10
124.863525440707
 20
131.945495575045
 30
0.0
 10
125.0019535470271
 20
132.0416553019112
 30
0.0
 10
125.1309638348589
 20
132.1486869962798
 30
0.0
 10
125.2488851249473
 20
132.2651943078542
 30
0.0
 10
125.3555488504892
 20
132.3909307729898
 30
0.0
 10
125.4644240208187
 20
132.5461669314388
 30
0.0
 10
125.56955773709
 20
132.7351893866896
 30
0.0
 10
125.6215370386001
 20
132.8874357225385
 30
0.0
 10
125.6475136073476
 20
132.9635205959161
 30
0.0
 11
123.7156619547695
 21
131.6200444538621
 31
0.0
 11
124.0620412740592
 21
131.6474357401017
 31
0.0
 11
124.3997022414204
 21
131.7293585486576
 31
0.0
 11
124.5604108605685
 21
131.7896676530586
 31
0.0
 11
124.715661954769
 21
131.8628888934927
 31
0.0
 11
124.8622592627284
 21
131.9475022457378
 31
0.0
 11
125.0012371741423
 21
132.044115939906
 31
0.0
 11
125.1293467453919
 21
132.1504757122383
 31
0.0
 11
125.2477508410074
 21
132.2675331957968
 31
0.0
 11
125.3535471463422
 21
132.3924431641693
 31
0.0
 11
125.4477127623379
 21
132.526352240899
 31
0.0
 11
125.5629671800651
 21
132.7380527092147
 31
0.0
 11
125.6475136073476
 21
132.9635205959161
 31
0.0
  0
SPLINE
  5
505
330
1F
100
AcDbEntity
  8
Sichtbare_Kanten_TC_020513_DIN_
  6
Continuous
 62
     7
100
AcDbSpline
210
0.0
220
0.0
230
1.0
 70
     8
 71
     3
 72
    19
 73
    15
 74
    13
 42
0.000000001
 43
0.0000000001
 44
0.00000001
 40
0.0
 40
0.0
 40
0.0
 40
0.0
 40
0.3221862205370116
 40
0.6443862618341438
 40
0.8094705328393714
 40
0.9745562229277548
 40
1.142463280811683
 40
1.310374909566891
 40
1.480895931773711
 40
1.651417687594003
 40
1.824033462668538
 40
1.996661195040602
 40
2.257865073019139
 40
2.51889498788903
 40
2.51889498788903
 40
2.51889498788903
 40
2.51889498788903
 10
56.12904020190035
 20
132.9635205959161
 30
0.0
 10
56.16525386477812
 20
132.8620862752776
 30
0.0
 10
56.23768275750118
 20
132.6592132882423
 30
0.0
 10
56.38707440393456
 20
132.431522844734
 30
0.0
 10
56.5274280807712
 20
132.2653466061751
 30
0.0
 10
56.64577525182659
 20
132.1485297713614
 30
0.0
 10
56.7744240216193
 20
132.0417957287121
 30
0.0
 10
56.91320403394698
 20
131.9453827417816
 30
0.0
 10
57.06033818690671
 20
131.8605235475275
 30
0.0
 10
57.21538860070063
 20
131.787461745102
 30
0.0
 10
57.37654553875286
 20
131.7269598441319
 30
0.0
 10
57.57111911404204
 20
131.6717040535243
 30
0.0
 10
57.79965938843029
 20
131.6289605614625
 30
0.0
 10
57.97383370544296
 20
131.6230158247522
 30
0.0
 10
58.06089185447848
 20
131.6200444538621
 30
0.0
 11
56.12904020190035
 21
132.9635205959161
 31
0.0
 11
56.2493046130966
 21
132.6646218952018
 31
0.0
 11
56.42258776590047
 21
132.3929864464845
 31
0.0
 11
56.52928197865253
 21
132.2670135851104
 31
0.0
 11
56.64667829210536
 21
132.1509472638246
 31
0.0
 11
56.7758711722127
 21
132.0436999791097
 31
0.0
 11
56.91373898177633
 21
131.9478522749239
 31
0.0
 11
57.06142623334506
 21
131.8626120557294
 31
0.0
 11
57.21565533099707
 21
131.7898724182493
 31
0.0
 11
57.37726502221426
 21
131.7292216662418
 31
0.0
 11
57.54325376427342
 21
131.6818078318049
 31
0.0
 11
57.80031985137219
 21
131.6354991584595
 31
0.0
 11
58.06089185447848
 21
131.6200444538621
 31
0.0
  0
SPLINE
  5
506
330
1F
100
AcDbEntity
  8
Sichtbare_Kanten_TC_020513_DIN_
  6
Continuous
 62
     7
100
AcDbSpline
210
0.0
220
0.0
230
1.0
 70
     8
 71
     3
 72
    19
 73
    15
 74
    13
 42
0.000000001
 43
0.0000000001
 44
0.00000001
 40
0.0
 40
0.0
 40
0.0
 40
0.0
 40
0.3221862205369878
 40
0.6443862618341389
 40
0.8094705328393461
 40
0.9745562229277793
 40
1.142463280811688
 40
1.3103749095669
 40
1.480895931773714
 40
1.651417687594025
 40
1.82403346266856
 40
1.996661195040645
 40
2.25786507301917
 40
2.518894987889034
 40
2.518894987889034
 40
2.518894987889034
 40
2.518894987889034
 10
56.12904020190035
 20
133.5551861623531
 30
0.0
 10
56.16525386477807
 20
133.4537518417146
 30
0.0
 10
56.23768275750112
 20
133.2508788546793
 30
0.0
 10
56.38707440393446
 20
133.023188411171
 30
0.0
 10
56.52742808077127
 20
132.8570121726123
 30
0.0
 10
56.64577525182654
 20
132.7401953377984
 30
0.0
 10
56.77442402161935
 20
132.6334612951491
 30
0.0
 10
56.91320403394693
 20
132.5370483082186
 30
0.0
 10
57.06033818690672
 20
132.4521891139645
 30
0.0
 10
57.21538860070062
 20
132.379127311539
 30
0.0
 10
57.37654553875291
 20
132.318625410569
 30
0.0
 10
57.57111911404206
 20
132.2633696199612
 30
0.0
 10
57.79965938843031
 20
132.2206261278996
 30
0.0
 10
57.97383370544296
 20
132.2146813911892
 30
0.0
 10
58.06089185447848
 20
132.2117100202991
 30
0.0
 11
56.12904020190035
 21
133.5551861623531
 31
0.0
 11
56.24930461309653
 21
133.2562874616388
 31
0.0
 11
56.42258776590045
 21
132.9846520129215
 31
0.0
 11
56.52928197865254
 21
132.8586791515475
 31
0.0
 11
56.64667829210536
 21
132.7426128302616
 31
0.0
 11
56.77587117221272
 21
132.6353655455467
 31
0.0
 11
56.91373898177633
 21
132.5395178413609
 31
0.0
 11
57.06142623334505
 21
132.4542776221664
 31
0.0
 11
57.21565533099707
 21
132.3815379846862
 31
0.0
 11
57.37726502221428
 21
132.3208872326788
 31
0.0
 11
57.54325376427346
 21
132.2734733982419
 31
0.0
 11
57.80031985137222
 21
132.2271647248965
 31
0.0
 11
58.06089185447848
 21
132.2117100202991
 31
0.0
  0
LWPOLYLINE
  5
507
330
1F
100
AcDbEntity
  8
Sichtbare_Kanten_TC_020513_DIN_
  6
Continuous
 62
     7
100
AcDbPolyline
 90
       25
 70
     0
 43
0.0
 10
54.50049480776107
 20
138.4718916519061
 10
54.49066719393045
 20
138.5182560189141
 10
54.48084196428567
 20
138.5649771197211
 10
54.47102150301248
 20
138.6120433314221
 10
54.46120342592519
 20
138.6594424350631
 10
54.45138534883779
 20
138.7071628077401
 10
54.44156965593606
 20
138.7551925285231
 10
54.43175396303445
 20
138.8035190804371
 10
54.42193588594705
 20
138.8521311386001
 10
54.41211780885965
 20
138.9010164840591
 10
54.40229734758646
 20
138.9501628978621
 10
54.39247211794168
 20
138.9995584590811
 10
54.38264450411117
 20
139.0491918428311
 10
54.37281689028055
 20
139.0990260942351
 10
54.36299166063577
 20
139.1490230663191
 10
54.35317119936269
 20
139.1991714342011
 10
54.34335312227529
 20
139.2494580848591
 10
54.33353504518777
 20
139.2998699052701
 10
54.32371935228616
 20
139.3503955705541
 10
54.31390365938455
 20
139.4010219676861
 10
54.30408558229715
 20
139.4517359836471
 10
54.29426750520975
 20
139.5025256975071
 10
54.28444704393655
 20
139.5533785922901
 10
54.27462181429189
 20
139.6042815549741
 10
54.26479420046127
 20
139.6552226646321
  0
LWPOLYLINE
  5
508
330
1F
100
AcDbEntity
  8
Sichtbare_Kanten_TC_020513_DIN_
  6
Continuous
 62
     7
100
AcDbPolyline
 90
       25
 70
     0
 43
0.0
 10
54.26479420046127
 20
139.6552226646321
 10
54.27462181429189
 20
139.6297524078261
 10
54.28444704393655
 20
139.6043006284611
 10
54.29426750520975
 20
139.5788744790921
 10
54.30408558229715
 20
139.5534793241391
 10
54.31390365938455
 20
139.5281223161591
 10
54.32371935228616
 20
139.5028094156161
 10
54.33353504518777
 20
139.4775465829741
 10
54.34335312227529
 20
139.4523403747451
 10
54.35317119936269
 20
139.4271973474401
 10
54.36299166063577
 20
139.4021228654751
 10
54.37281689028055
 20
139.3771246774571
 10
54.38264450411117
 20
139.3522075517551
 10
54.39247211794168
 20
139.3273905618561
 10
54.40229734758646
 20
139.3026927812471
 10
54.41211780885965
 20
139.2781195743451
 10
54.42193588594705
 20
139.2536769016161
 10
54.43175396303445
 20
139.2293707235231
 10
54.44156965593606
 20
139.2052075965781
 10
54.45138534883779
 20
139.1811928851981
 10
54.46120342592519
 20
139.1573325498471
 10
54.47102150301248
 20
139.1336331470381
 10
54.48084196428567
 20
139.1101000411881
 10
54.49066719393045
 20
139.0867391927611
 10
54.50049480776107
 20
139.0635571582691
  0
LWPOLYLINE
  5
509
330
1F
100
AcDbEntity
  8
Sichtbare_Kanten_TC_020513_DIN_
  6
Continuous
 62
     7
100
AcDbPolyline
 90
       25
 70
     0
 43
0.0
 10
41.43029293398178
 20
151.4363948209661
 10
41.42687401155746
 20
151.4453235967531
 10
41.42359814028055
 20
151.4542511804471
 10
41.42046532015115
 20
151.4631787641421
 10
41.41747555116928
 20
151.4721063478361
 10
41.41463360170639
 20
151.4810327394381
 10
41.41193947176248
 20
151.4899603231321
 10
41.40938362459457
 20
151.4988867147341
 10
41.4069755969457
 20
151.5078142984281
 10
41.40471538881576
 20
151.5167406900301
 10
41.40259823183328
 20
151.5256682737241
 10
41.40062889436996
 20
151.5345970495121
 10
41.3988026080541
 20
151.5435258252991
 10
41.39711937288558
 20
151.5524534089941
 10
41.39558395723617
 20
151.5613821847811
 10
41.39419636110574
 20
151.5703097684751
 10
41.39295658449447
 20
151.5792373521701
 10
41.39185985903055
 20
151.5881637437711
 10
41.39091095308578
 20
151.5970913274661
 10
41.39010509828836
 20
151.6060177190671
 10
41.38944706301004
 20
151.6149441106691
 10
41.38893684725076
 20
151.6238716943631
 10
41.38856968263895
 20
151.6327992780581
 10
41.38835033754617
 20
151.6417280538451
 10
41.38827881197244
 20
151.6506556375401
  0
LWPOLYLINE
  5
50A
330
1F
100
AcDbEntity
  8
Sichtbare_Kanten_TC_020513_DIN_
  6
Continuous
 62
     7
100
AcDbPolyline
 90
       25
 70
     0
 43
0.0
 10
42.78827747682846
 20
151.6506556375401
 10
42.78831562380105
 20
151.6417280538451
 10
42.78842529634744
 20
151.6327992780581
 10
42.78860649446756
 20
151.6238716943631
 10
42.78886398653305
 20
151.6149441106691
 10
42.78919300417215
 20
151.6060177190671
 10
42.78959354738504
 20
151.5970913274661
 10
42.79007038454324
 20
151.5881637437711
 10
42.79061397890365
 20
151.5792373521701
 10
42.79123863558084
 20
151.5703097684751
 10
42.79193004946029
 20
151.5613821847811
 10
42.79269775728494
 20
151.5524534089941
 10
42.79353699068349
 20
151.5435258252991
 10
42.79445251802719
 20
151.5345970495121
 10
42.79543957094467
 20
151.5256682737241
 10
42.79649814943588
 20
151.5167406900301
 10
42.79762825350076
 20
151.5078142984281
 10
42.79882988313949
 20
151.4988867147341
 10
42.80010780672347
 20
151.4899603231321
 10
42.80145725588119
 20
151.4810327394381
 10
42.80287823061269
 20
151.4721063478361
 10
42.80437073091775
 20
151.4631787641421
 10
42.80593475679666
 20
151.4542511804471
 10
42.80757507662099
 20
151.4453235967531
 10
42.80928692201889
 20
151.4363948209661
  0
LWPOLYLINE
  5
50B
330
1F
100
AcDbEntity
  8
Sichtbare_Kanten_TC_020513_DIN_
  6
Continuous
 62
     7
100
AcDbPolyline
 90
       25
 70
     0
 43
0.0
 10
41.81921562532699
 20
151.2153998716251
 10
41.7897995410375
 20
151.2159386976141
 10
41.76137527803695
 20
151.2175587518591
 10
41.73396190981185
 20
151.2202648027311
 10
41.70755943636215
 20
151.2240616186041
 10
41.68218693117416
 20
151.2289515836611
 10
41.65784916261947
 20
151.2349406583681
 10
41.63455566744125
 20
151.2420324190031
 10
41.61232075075418
 20
151.2502316339391
 10
41.59114918092996
 20
151.2595418794531
 10
41.57106479982645
 20
151.2699631555451
 10
41.55247768739974
 20
151.2812451227081
 10
41.53552612642557
 20
151.2931588991061
 10
41.52013382295877
 20
151.3055685861481
 10
41.50621017793924
 20
151.3183406694311
 10
41.49368366579324
 20
151.3313404424561
 10
41.48246845583236
 20
151.3444331987281
 10
41.47248348573959
 20
151.3574854238401
 10
41.46365246156967
 20
151.3703612192051
 10
41.45588955263406
 20
151.3829270704161
 10
41.44911369661605
 20
151.3950470788851
 10
41.44324859957015
 20
151.4065889222991
 10
41.43821319917947
 20
151.4174167020691
 10
41.43392166475564
 20
151.4273969037901
 10
41.43029293398178
 20
151.4363948209661
  0
LWPOLYLINE
  5
50C
330
1F
100
AcDbEntity
  8
Sichtbare_Kanten_TC_020513_DIN_
  6
Continuous
 62
     7
100
AcDbPolyline
 90
       25
 70
     0
 43
0.0
 10
42.80928692201889
 20
151.4363948209661
 10
42.81111320833475
 20
151.4273110731021
 10
42.81324943880355
 20
151.4173320634741
 10
42.81573852876937
 20
151.4065770013701
 10
42.81861862520486
 20
151.3951698644531
 10
42.82192787508285
 20
151.3832310541051
 10
42.82571396211898
 20
151.3708821638001
 10
42.83001503328597
 20
151.3582459791081
 10
42.83486923555648
 20
151.3454429014101
 10
42.84031948427474
 20
151.3325957162751
 10
42.84640392641336
 20
151.3198260171781
 10
42.85316547731668
 20
151.3072553975951
 10
42.86064705232894
 20
151.2950054510011
 10
42.86888679842264
 20
151.2831977708711
 10
42.8779228625707
 20
151.2719551427731
 10
42.88773140291488
 20
151.2614706857581
 10
42.89815983156478
 20
151.2519935472381
 10
42.90921291689188
 20
151.2435547216311
 10
42.92089542726785
 20
151.2361744745151
 10
42.9332264361791
 20
151.2298742635621
 10
42.94618210176736
 20
151.2246838910951
 10
42.95971474031717
 20
151.2206331594361
 10
42.97382912019998
 20
151.2177304132361
 10
42.98850616792947
 20
151.2159839971441
 10
43.00374588350564
 20
151.2153998716251
  0
LWPOLYLINE
  5
50D
330
1F
100
AcDbEntity
  8
Sichtbare_Kanten_TC_020513_DIN_
  6
Continuous
 62
     7
100
AcDbPolyline
 90
       25
 70
     0
 43
0.0
 10
55.10380348543436
 20
150.5784837110411
 10
55.13143381456649
 20
150.7119742734801
 10
55.15901169161117
 20
150.8423987729921
 10
55.18655619005477
 20
150.9695175989041
 10
55.21408638338357
 20
151.0930911405461
 10
55.24161657671249
 20
151.2128785951511
 10
55.26916822771347
 20
151.3286427362331
 10
55.29675564150125
 20
151.4401415689361
 10
55.3243978915624
 20
151.5471223695651
 10
55.35201391557968
 20
151.6490033967871
 10
55.37958225588119
 20
151.7454532487761
 10
55.40712198595315
 20
151.8363062246221
 10
55.43464979509628
 20
151.9213966234101
 10
55.46218475679666
 20
152.0005587442291
 10
55.48974356035507
 20
152.0736292703521
 10
55.51734289507186
 20
152.1404425008671
 10
55.54499229769027
 20
152.2008088930021
 10
55.5726250110082
 20
152.2544220788851
 10
55.60024818758285
 20
152.3011556966681
 10
55.62787851671487
 20
152.3409191472901
 10
55.65552791933328
 20
152.3736218316931
 10
55.68316778520858
 20
152.3991326196561
 10
55.71079096178329
 20
152.4173930986301
 10
55.73841890672958
 20
152.4283710821041
 10
55.76606354097635
 20
152.4320367677581
  0
LWPOLYLINE
  5
50E
330
1F
100
AcDbEntity
  8
Sichtbare_Kanten_TC_020513_DIN_
  6
Continuous
 62
     7
100
AcDbPolyline
 90
       25
 70
     0
 43
0.0
 10
55.76606354097635
 20
151.0320369108091
 10
55.73840698580057
 20
151.0302022798431
 10
55.71080526689809
 20
151.0247186525241
 10
55.68324169496805
 20
151.0156134469881
 10
55.65569719652444
 20
151.0029176576511
 10
55.62815508226669
 20
150.9866598947421
 10
55.60059627870828
 20
150.9668675763981
 10
55.57300409654886
 20
150.9435716970341
 10
55.54535707811624
 20
150.9168008668791
 10
55.51769098619735
 20
150.8866421087161
 10
55.49008211473739
 20
150.8532635076421
 10
55.46251377443588
 20
150.8167520864381
 10
55.43496689180648
 20
150.7771877153291
 10
55.40742477754867
 20
150.7346538408171
 10
55.37987074236185
 20
150.6892327173131
 10
55.35228332857406
 20
150.6410054071321
 10
55.32464823107034
 20
150.5900553567781
 10
55.29697737077987
 20
150.5365256173981
 10
55.26935419420516
 20
150.4807225568671
 10
55.24176916460306
 20
150.4227832658661
 10
55.21420559267318
 20
150.3628281457801
 10
55.1866444049291
 20
150.3009787900821
 10
55.15906891207015
 20
150.2373532159701
 10
55.13146242479598
 20
150.1720742090121
 10
55.10380348543436
 20
150.1052609784971
  0
LWPOLYLINE
  5
50F
330
1F
100
AcDbEntity
  8
Sichtbare_Kanten_TC_020513_DIN_
  6
Continuous
 62
     7
100
AcDbPolyline
 90
       25
 70
     0
 43
0.0
 10
54.69237408022195
 20
149.6320370538611
 10
54.70258077959335
 20
149.6457938058751
 10
54.71410593370706
 20
149.6616581781281
 10
54.72683987001688
 20
149.6796003682981
 10
54.74067291597635
 20
149.6995977266211
 10
54.755497783225
 20
149.7216216428651
 10
54.771207183402
 20
149.7456458909881
 10
54.7876866755895
 20
149.7716442449461
 10
54.80483135561269
 20
149.7995916707891
 10
54.82252916673934
 20
149.8294595582851
 10
54.84067282060897
 20
149.8612240655791
 10
54.85915026048934
 20
149.8948565824401
 10
54.87785658220565
 20
149.9303308828251
 10
54.89668211321146
 20
149.9676219327821
 10
54.91551241258895
 20
150.0067023141761
 10
54.93424496034896
 20
150.0475469930541
 10
54.95276769975936
 20
150.0901273591891
 10
54.97141441683084
 20
150.1354352338681
 10
54.9907477794103
 20
150.1852516038791
 10
55.01046976427347
 20
150.2395919664281
 10
55.03026327471059
 20
150.2984384401221
 10
55.04980882982528
 20
150.3617707593811
 10
55.06879410127908
 20
150.4295674665351
 10
55.08689722399026
 20
150.5018118722811
 10
55.10380348543436
 20
150.5784837110411
  0
LWPOLYLINE
  5
510
330
1F
100
AcDbEntity
  8
Sichtbare_Kanten_TC_020513_DIN_
  6
Continuous
 62
     7
100
AcDbPolyline
 90
       25
 70
     0
 43
0.0
 10
55.10380348543436
 20
150.1052609784971
 10
55.09795984606069
 20
150.0913695199861
 10
55.09102424959457
 20
150.0757221086391
 10
55.08288702348978
 20
150.0584141118901
 10
55.07344326357156
 20
150.0395456655401
 10
55.06258806566507
 20
150.0192145212071
 10
55.05021414140975
 20
149.9975184305091
 10
55.03621897081649
 20
149.9745575292481
 10
55.02049526552474
 20
149.9504283769501
 10
55.00293573717386
 20
149.9252287252321
 10
54.98343786577499
 20
149.8990599019901
 10
54.96189436296737
 20
149.8720172746551
 10
54.93867954592025
 20
149.8447707994361
 10
54.91510948519027
 20
149.8188833101171
 10
54.89144405702865
 20
149.7944465978521
 10
54.86787638048446
 20
149.7714701993841
 10
54.84460195879257
 20
149.7499636514561
 10
54.82181629518777
 20
149.7299388749971
 10
54.79971250871927
 20
149.7114030225651
 10
54.77849087099344
 20
149.6943668229951
 10
54.75833973268777
 20
149.6788410051241
 10
54.73945936540878
 20
149.6648351056951
 10
54.72204050401956
 20
149.6523598535431
 10
54.70628103594095
 20
149.6414235933201
 10
54.69237408022195
 20
149.6320370538611
  0
LWPOLYLINE
  5
511
330
1F
100
AcDbEntity
  8
Sichtbare_Kanten_TC_020513_DIN_
  6
Continuous
 62
     7
100
AcDbPolyline
 90
       25
 70
     0
 43
0.0
 10
127.0841797290256
 20
149.6320370538611
 10
127.0702727733066
 20
149.6414235933201
 10
127.0545133052276
 20
149.6523598535431
 10
127.0370944438386
 20
149.6648351056951
 10
127.0182140765596
 20
149.6788410051241
 10
126.9980629382546
 20
149.6943668229951
 10
126.9768413005286
 20
149.7114030225651
 10
126.9547375140596
 20
149.7299388749971
 10
126.9319518504556
 20
149.7499636514561
 10
126.9086774287636
 20
149.7714701993841
 10
126.8851097522196
 20
149.7944465978521
 10
126.8614443240576
 20
149.8188833101171
 10
126.8378742633275
 20
149.8447707994361
 10
126.8146594462805
 20
149.8720172746551
 10
126.7931159434726
 20
149.8990599019901
 10
126.7736180720735
 20
149.9252287252321
 10
126.7560585437226
 20
149.9504283769501
 10
126.7403348384316
 20
149.9745575292481
 10
126.7263396678376
 20
149.9975184305091
 10
126.7139657435826
 20
150.0192145212071
 10
126.7031105456756
 20
150.0395456655401
 10
126.6936667857576
 20
150.0584141118901
 10
126.6855295596536
 20
150.0757221086391
 10
126.6785939631876
 20
150.0913695199861
 10
126.6727503238136
 20
150.1052609784971
  0
LWPOLYLINE
  5
512
330
1F
100
AcDbEntity
  8
Sichtbare_Kanten_TC_020513_DIN_
  6
Continuous
 62
     7
100
AcDbPolyline
 90
       25
 70
     0
 43
0.0
 10
126.6727503238136
 20
150.1052609784971
 10
126.6450937686376
 20
150.1720682485471
 10
126.6174944339206
 20
150.2373317582981
 10
126.5899284778046
 20
150.3009311063661
 10
126.5623863635476
 20
150.3627470834631
 10
126.5348418651035
 20
150.4226604802981
 10
126.5072830615455
 20
150.4805520875821
 10
126.4796908793855
 20
150.5363026960271
 10
126.4520438609536
 20
150.5897919042481
 10
126.4243801532195
 20
150.6408099038971
 10
126.3967688975746
 20
150.6890872819791
 10
126.3692005572726
 20
150.7345393998991
 10
126.3416536746436
 20
150.7770875795261
 10
126.3141115603855
 20
150.8166519506351
 10
126.2865575251985
 20
150.8531550271881
 10
126.2589701114106
 20
150.8865157468691
 10
126.2313350139076
 20
150.9166566236391
 10
126.2036641536166
 20
150.9434691770451
 10
126.1760409770426
 20
150.9668032033811
 10
126.1484559474396
 20
150.9866217477691
 10
126.1208923755106
 20
151.0028985841651
 10
126.0933311877656
 20
151.0156062944311
 10
126.0657556949076
 20
151.0247162683381
 10
126.0381492076326
 20
151.0302022798431
 10
126.0104902682716
 20
151.0320369108091
  0
LWPOLYLINE
  5
513
330
1F
100
AcDbEntity
  8
Sichtbare_Kanten_TC_020513_DIN_
  6
Continuous
 62
     7
100
AcDbPolyline
 90
       25
 70
     0
 43
0.0
 10
126.6727503238136
 20
150.5784837110411
 10
126.6896565852576
 20
150.5018118722811
 10
126.7077597079685
 20
150.4295674665351
 10
126.7267449794226
 20
150.3617707593811
 10
126.7462905345376
 20
150.2984384401221
 10
126.7660840449746
 20
150.2395919664281
 10
126.7858060298375
 20
150.1852516038791
 10
126.8051393924166
 20
150.1354352338681
 10
126.8237861094885
 20
150.0901273591891
 10
126.8423088488986
 20
150.0475469930541
 10
126.8610413966586
 20
150.0067023141761
 10
126.8798716960366
 20
149.9676219327821
 10
126.8986972270426
 20
149.9303308828251
 10
126.9174035487586
 20
149.8948565824401
 10
126.9358809886386
 20
149.8612240655791
 10
126.9540246425086
 20
149.8294595582851
 10
126.9717224536356
 20
149.7995916707891
 10
126.9888671336586
 20
149.7716442449461
 10
127.0053466258456
 20
149.7456458909881
 10
127.0210560260226
 20
149.7216216428651
 10
127.0358808932716
 20
149.6995977266211
 10
127.0497139392306
 20
149.6796003682981
 10
127.0624478755406
 20
149.6616581781281
 10
127.0739730296546
 20
149.6457938058751
 10
127.0841797290256
 20
149.6320370538611
  0
LWPOLYLINE
  5
514
330
1F
100
AcDbEntity
  8
Sichtbare_Kanten_TC_020513_DIN_
  6
Continuous
 62
     7
100
AcDbPolyline
 90
       25
 70
     0
 43
0.0
 10
126.0104902682716
 20
152.4320367677581
 10
126.0381205974036
 20
152.4283746583831
 10
126.0656984744476
 20
152.4174264772311
 10
126.0932429728916
 20
152.3992446763891
 10
126.1207731662206
 20
152.3738864763151
 10
126.1483033595496
 20
152.3414067132841
 10
126.1758550105506
 20
152.3018590314761
 10
126.2034424243386
 20
152.2553018434421
 10
126.2310846743995
 20
152.2017947538271
 10
126.2587006984165
 20
152.1416155202761
 10
126.2862714229036
 20
152.0749989850891
 10
126.3138111529756
 20
152.0021013124361
 10
126.3413389621186
 20
151.9230798585781
 10
126.3688715396336
 20
151.8380895955931
 10
126.3964303431916
 20
151.7472902639281
 10
126.4240296779086
 20
151.6508368356601
 10
126.4516790805276
 20
151.5489295823941
 10
126.4793141780306
 20
151.4420572622191
 10
126.5069349704196
 20
151.3304976327791
 10
126.5345652995516
 20
151.2144712312591
 10
126.5622147021705
 20
151.0942081315891
 10
126.5898545680456
 20
150.9701660974401
 10
126.6174801288056
 20
150.8426956041231
 10
126.6451056895666
 20
150.7120505674261
 10
126.6727503238136
 20
150.5784837110411
  0
LWPOLYLINE
  5
515
330
1F
100
AcDbEntity
  8
Sichtbare_Kanten_TC_020513_DIN_
  6
Continuous
 62
     7
100
AcDbPolyline
 90
       25
 70
     0
 43
0.0
 10
127.2760590014866
 20
139.0635571582691
 10
127.2858866153176
 20
139.0867391927611
 10
127.2957118449616
 20
139.1101000411881
 10
127.3055323062356
 20
139.1336331470381
 10
127.3153503833225
 20
139.1573325498471
 10
127.3251684604096
 20
139.1811928851981
 10
127.3349841533116
 20
139.2052075965781
 10
127.3447998462136
 20
139.2293707235231
 10
127.3546179233006
 20
139.2536769016161
 10
127.3644360003876
 20
139.2781195743451
 10
127.3742564616616
 20
139.3026927812471
 10
127.3840816913056
 20
139.3273905618561
 10
127.3939093051366
 20
139.3522075517551
 10
127.4037369189676
 20
139.3771246774571
 10
127.4135621486116
 20
139.4021228654751
 10
127.4233826098856
 20
139.4271973474401
 10
127.4332006869726
 20
139.4523403747451
 10
127.4430187640596
 20
139.4775465829741
 10
127.4528344569616
 20
139.5028094156161
 10
127.4626501498636
 20
139.5281223161591
 10
127.4724682269506
 20
139.5534793241391
 10
127.4822863040375
 20
139.5788744790921
 10
127.4921067653116
 20
139.6043006284611
 10
127.5019319949556
 20
139.6297524078261
 10
127.5117596087866
 20
139.6552226646321
  0
LWPOLYLINE
  5
516
330
1F
100
AcDbEntity
  8
Sichtbare_Kanten_TC_020513_DIN_
  6
Continuous
 62
     7
100
AcDbPolyline
 90
       25
 70
     0
 43
0.0
 10
127.5117596087866
 20
139.6552226646321
 10
127.5019319949556
 20
139.6042815549741
 10
127.4921067653116
 20
139.5533785922901
 10
127.4822863040375
 20
139.5025256975071
 10
127.4724682269506
 20
139.4517359836471
 10
127.4626501498636
 20
139.4010219676861
 10
127.4528344569616
 20
139.3503955705541
 10
127.4430187640596
 20
139.2998699052701
 10
127.4332006869726
 20
139.2494580848591
 10
127.4233826098856
 20
139.1991714342011
 10
127.4135621486116
 20
139.1490230663191
 10
127.4037369189676
 20
139.0990260942351
 10
127.3939093051366
 20
139.0491918428311
 10
127.3840816913056
 20
138.9995584590811
 10
127.3742564616616
 20
138.9501628978621
 10
127.3644360003876
 20
138.9010164840591
 10
127.3546179233006
 20
138.8521311386001
 10
127.3447998462136
 20
138.8035190804371
 10
127.3349841533116
 20
138.7551925285231
 10
127.3251684604096
 20
138.7071628077401
 10
127.3153503833225
 20
138.6594424350631
 10
127.3055323062356
 20
138.6120433314221
 10
127.2957118449616
 20
138.5649771197211
 10
127.2858866153176
 20
138.5182560189141
 10
127.2760590014866
 20
138.4718916519061
  0
LWPOLYLINE
  5
517
330
1F
100
AcDbEntity
  8
Sichtbare_Kanten_TC_020513_DIN_
  6
Continuous
 62
     7
100
AcDbPolyline
 90
       25
 70
     0
 43
0.0
 10
140.3882749972756
 20
151.6506556375401
 10
140.3882034717016
 20
151.6417280538451
 10
140.3879841266086
 20
151.6327992780581
 10
140.3876169619966
 20
151.6238716943631
 10
140.3871067462376
 20
151.6149441106691
 10
140.3864487109596
 20
151.6060177190671
 10
140.3856428561616
 20
151.5970913274661
 10
140.3846939502176
 20
151.5881637437711
 10
140.3835972247535
 20
151.5792373521701
 10
140.3823574481415
 20
151.5703097684751
 10
140.3809698520116
 20
151.5613821847811
 10
140.3794344363616
 20
151.5524534089941
 10
140.3777512011936
 20
151.5435258252991
 10
140.3759249148776
 20
151.5345970495121
 10
140.3739555774146
 20
151.5256682737241
 10
140.3718384204316
 20
151.5167406900301
 10
140.3695782123016
 20
151.5078142984281
 10
140.3671701846536
 20
151.4988867147341
 10
140.3646143374856
 20
151.4899603231321
 10
140.3619202075416
 20
151.4810327394381
 10
140.3590782580786
 20
151.4721063478361
 10
140.3560884890966
 20
151.4631787641421
 10
140.3529556689676
 20
151.4542511804471
 10
140.3496797976906
 20
151.4453235967531
 10
140.3462608752656
 20
151.4363948209661
  0
LWPOLYLINE
  5
518
330
1F
100
AcDbEntity
  8
Sichtbare_Kanten_TC_020513_DIN_
  6
Continuous
 62
     7
100
AcDbPolyline
 90
       25
 70
     0
 43
0.0
 10
138.9672668872286
 20
151.4363948209661
 10
138.9689787326266
 20
151.4453235967531
 10
138.9706190524506
 20
151.4542511804471
 10
138.9721830783296
 20
151.4631787641421
 10
138.9736755786356
 20
151.4721063478361
 10
138.9750965533666
 20
151.4810327394381
 10
138.9764460025245
 20
151.4899603231321
 10
138.9777239261086
 20
151.4988867147341
 10
138.9789255557466
 20
151.5078142984281
 10
138.9800556598116
 20
151.5167406900301
 10
138.9811142383036
 20
151.5256682737241
 10
138.9821012912206
 20
151.5345970495121
 10
138.9830168185646
 20
151.5435258252991
 10
138.9838560519626
 20
151.5524534089941
 10
138.9846237597876
 20
151.5613821847811
 10
138.9853151736666
 20
151.5703097684751
 10
138.9859398303446
 20
151.5792373521701
 10
138.9864834247046
 20
151.5881637437711
 10
138.9869602618626
 20
151.5970913274661
 10
138.9873608050756
 20
151.6060177190671
 10
138.9876898227146
 20
151.6149441106691
 10
138.9879473147796
 20
151.6238716943631
 10
138.9881285129006
 20
151.6327992780581
 10
138.9882381854466
 20
151.6417280538451
 10
138.9882763324196
 20
151.6506556375401
  0
LWPOLYLINE
  5
519
330
1F
100
AcDbEntity
  8
Sichtbare_Kanten_TC_020513_DIN_
  6
Continuous
 62
     7
100
AcDbPolyline
 90
       25
 70
     0
 43
0.0
 10
140.3462608752656
 20
151.4363948209661
 10
140.3426178393776
 20
151.4273647172821
 10
140.3383119998385
 20
151.4173511369601
 10
140.3332527575906
 20
151.4064875944031
 10
140.3273638186865
 20
151.3949123723881
 10
140.3205593524386
 20
151.3827566011321
 10
140.3127630649026
 20
151.3701597555051
 10
140.3038938937596
 20
151.3572529657261
 10
140.2938707766946
 20
151.3441745145691
 10
140.2826126513886
 20
151.3310591085331
 10
140.2700336871556
 20
151.3180402620211
 10
140.2560575900486
 20
151.3052550657171
 10
140.2405985293796
 20
151.2928370340241
 10
140.2235849795745
 20
151.2809232576261
 10
140.2049263415746
 20
151.2696484430211
 10
140.1848610339575
 20
151.2592820032011
 10
140.1637276111056
 20
151.2500254018681
 10
140.1415308413916
 20
151.2418750627411
 10
140.1182897983006
 20
151.2348238332641
 10
140.0940044818336
 20
151.2288705213441
 10
140.0686939654756
 20
151.2240091665161
 10
140.0423582492285
 20
151.2202361925021
 10
140.0150164065766
 20
151.2175468309301
 10
139.9866732058936
 20
151.2159363134281
 10
139.9573381839206
 20
151.2153998716251
  0
LWPOLYLINE
  5
51A
330
1F
100
AcDbEntity
  8
Sichtbare_Kanten_TC_020513_DIN_
  6
Continuous
 62
     7
100
AcDbPolyline
 90
       25
 70
     0
 43
0.0
 10
138.7728079257416
 20
151.2153998716251
 10
138.7870748935156
 20
151.2159088952911
 10
138.8008221087866
 20
151.2174300058261
 10
138.8140495715546
 20
151.2199524743931
 10
138.8267525134496
 20
151.2234643800631
 10
138.8389404712136
 20
151.2279573781861
 10
138.8506086764746
 20
151.2334207399261
 10
138.8617523608616
 20
151.2398413522611
 10
138.8723762927466
 20
151.2472120626341
 10
138.8824804721286
 20
151.2555197580231
 10
138.8920553622656
 20
151.2647429807561
 10
138.9010675845556
 20
151.2748268945591
 10
138.9095266757416
 20
151.2857440812961
 10
138.9174517093115
 20
151.2974706991091
 10
138.9248569903785
 20
151.3099864824191
 10
138.9317520556856
 20
151.3232663972751
 10
138.9381178317476
 20
151.3371948106661
 10
138.9437921939306
 20
151.3512317045101
 10
138.9487989840916
 20
151.3651446206941
 10
138.9531763492036
 20
151.3787618978391
 10
138.9569719729836
 20
151.3919118745701
 10
138.9602335391456
 20
151.4044228895081
 10
138.9630039630346
 20
151.4161220891851
 10
138.9653356967386
 20
151.4268366201291
 10
138.9672668872286
 20
151.4363948209661
  0
LWPOLYLINE
  5
51B
330
1F
100
AcDbEntity
  8
Sichtbare_Kanten_TC_020513_DIN_
  6
Continuous
 62
     7
100
AcDbPolyline
 90
       25
 70
     0
 43
0.0
 10
100.5986072717126
 20
121.6377774579901
 10
100.6012155709676
 20
121.6377726896181
 10
100.6040992436816
 20
121.6377548082251
 10
100.6072272954395
 20
121.6377154691591
 10
100.6105657515936
 20
121.6376499040501
 10
100.6140830216816
 20
121.6375485761541
 10
100.6177469191956
 20
121.6374055250061
 10
100.6215234694886
 20
121.6372147901431
 10
100.6253816781456
 20
121.6369680269141
 10
100.6292887626106
 20
121.6366580827611
 10
100.6332113442826
 20
121.6362789972201
 10
100.6371178327016
 20
121.6358236177341
 10
100.6409754453116
 20
121.6352847917451
 10
100.6447519956046
 20
121.6346541746031
 10
100.6484141049796
 20
121.6339269979371
 10
100.6519301829746
 20
121.6330949170961
 10
100.6552823481966
 20
121.6321460111511
 10
100.6585057673866
 20
121.6310421331301
 10
100.6615402398516
 20
121.6297654016391
 10
100.6643130479266
 20
121.6282979352841
 10
100.6667508778986
 20
121.6266278131381
 10
100.6687822041916
 20
121.6247335775271
 10
100.6703325210026
 20
121.6225937707791
 10
100.6713076529916
 20
121.6202179296391
 10
100.6716396508626
 20
121.6176430089841
  0
LWPOLYLINE
  5
51C
330
1F
100
AcDbEntity
  8
Sichtbare_Kanten_TC_020513_DIN_
  6
Continuous
 62
     7
100
AcDbPolyline
 90
       25
 70
     0
 43
0.0
 10
81.10491415838516
 20
121.6176430089841
 10
81.10505482534677
 20
121.6193536622901
 10
81.10561928133285
 20
121.6213468416111
 10
81.10681614259988
 20
121.6235343320741
 10
81.10868236402786
 20
121.6256634099851
 10
81.11103197912485
 20
121.6275278432741
 10
81.11376365999496
 20
121.6291467054261
 10
81.11680826525009
 20
121.6305533750431
 10
81.12013122419626
 20
121.6317812307251
 10
81.12366995195657
 20
121.6328421934021
 10
81.12736186365396
 20
121.6337529523741
 10
81.13114556650436
 20
121.6345266206641
 10
81.13498112539565
 20
121.6351810796631
 10
81.13890072683608
 20
121.6357401712311
 10
81.14287456850326
 20
121.6362134321111
 10
81.14686927179605
 20
121.6366080148591
 10
81.15084847788125
 20
121.6369298799411
 10
81.15477821211135
 20
121.6371873720061
 10
81.15862271169937
 20
121.6373864515201
 10
81.16234680990499
 20
121.6375354631321
 10
81.16591653208047
 20
121.6376415593991
 10
81.1692967114858
 20
121.6377118928801
 10
81.17245158533365
 20
121.6377536161321
 10
81.1753465829305
 20
121.6377726896181
 10
81.17794653753555
 20
121.6377774579901
  0
LWPOLYLINE
  5
51D
330
1F
100
AcDbEntity
  8
Sichtbare_Kanten_TC_020513_DIN_
  6
Continuous
 62
     7
100
AcDbPolyline
 90
       25
 70
     0
 43
0.0
 10
257.5881397448746
 20
151.4363948209661
 10
257.5681936465466
 20
151.4453235967531
 10
257.5482213221756
 20
151.4542511804471
 10
257.5282299243175
 20
151.4631787641421
 10
257.5082146846027
 20
151.4721063478361
 10
257.4881803714005
 20
151.4810327394381
 10
257.4681269847116
 20
151.4899603231321
 10
257.4480521403516
 20
151.4988867147341
 10
257.4279606066906
 20
151.5078142984281
 10
257.4078523837296
 20
151.5167406900301
 10
257.3877274714675
 20
151.5256682737241
 10
257.3675858699046
 20
151.5345970495121
 10
257.3474275790416
 20
151.5435258252991
 10
257.3272597514356
 20
151.5524534089941
 10
257.3070800029005
 20
151.5613821847811
 10
257.2868907176226
 20
151.5703097684751
 10
257.2666942797865
 20
151.5792373521701
 10
257.2464883052076
 20
151.5881637437711
 10
257.2262751780716
 20
151.5970913274661
 10
257.2060548983776
 20
151.6060177190671
 10
257.1858322344986
 20
151.6149441106691
 10
257.1656024180616
 20
151.6238716943631
 10
257.1453678332535
 20
151.6327992780581
 10
257.1251332484445
 20
151.6417280538451
 10
257.1048938952655
 20
151.6506556375401
  0
LWPOLYLINE
  5
51E
330
1F
100
AcDbEntity
  8
Sichtbare_Kanten_TC_020513_DIN_
  6
Continuous
 62
     7
100
AcDbPolyline
 90
       25
 70
     0
 43
0.0
 10
258.5973918162556
 20
151.2153998716251
 10
258.5496341906757
 20
151.2159386976141
 10
258.5013448916635
 20
151.2175587518591
 10
258.4525549136366
 20
151.2202648027311
 10
258.4033000193806
 20
151.2240616186041
 10
258.3536159716806
 20
151.2289515836611
 10
258.3035385333266
 20
151.2349406583681
 10
258.2530963145456
 20
151.2420324190031
 10
258.2023298464975
 20
151.2502316339391
 10
258.1512701235976
 20
151.2595418794531
 10
258.0999839030466
 20
151.2699631555451
 10
258.0497324191296
 20
151.2812451227081
 10
258.0012094699115
 20
151.2931588991061
 10
257.9545104228226
 20
151.3055685861481
 10
257.9097282611095
 20
151.3183406694311
 10
257.8669583522045
 20
151.3313404424561
 10
257.8262936793536
 20
151.3444331987281
 10
257.7878296099865
 20
151.3574854238401
 10
257.7516638957226
 20
151.3703612192051
 10
257.7178847514356
 20
151.3829270704161
 10
257.6865899287426
 20
151.3950470788851
 10
257.6578747950756
 20
151.4065889222991
 10
257.6318323336806
 20
151.4174167020691
 10
257.6085555278027
 20
151.4273969037901
 10
257.5881397448746
 20
151.4363948209661
  0
LWPOLYLINE
  5
51F
330
1F
100
AcDbEntity
  8
Sichtbare_Kanten_TC_020513_DIN_
  6
Continuous
 62
     7
100
AcDbPolyline
 90
       25
 70
     0
 43
0.0
 10
258.7672316752676
 20
138.4718916519061
 10
258.7461220942736
 20
138.5182560189141
 10
258.7258708201656
 20
138.5649771197211
 10
258.7064754687556
 20
138.6120433314221
 10
258.6879455767876
 20
138.6594424350631
 10
258.6702811442616
 20
138.7071628077401
 10
258.6534893237356
 20
138.7551925285231
 10
258.6375724993947
 20
138.8035190804371
 10
258.6225354396105
 20
138.8521311386001
 10
258.6083829127556
 20
138.9010164840591
 10
258.5951173030145
 20
138.9501628978621
 10
258.5827433787586
 20
138.9995584590811
 10
258.5712635241756
 20
139.0491918428311
 10
258.5606920443776
 20
139.0990260942351
 10
258.5510313235526
 20
139.1490230663191
 10
258.5422837458856
 20
139.1991714342011
 10
258.5344493113765
 20
139.2494580848591
 10
258.5275351725826
 20
139.2998699052701
 10
258.5215365611315
 20
139.3503955705541
 10
258.5164558612115
 20
139.4010219676861
 10
258.5122978411915
 20
139.4517359836471
 10
258.5090601168876
 20
139.5025256975071
 10
258.5067474566705
 20
139.5533785922901
 10
258.5053574763537
 20
139.6042815549741
 10
258.5048925601246
 20
139.6552226646321
  0
LWPOLYLINE
  5
520
330
1F
100
AcDbEntity
  8
Sichtbare_Kanten_TC_020513_DIN_
  6
Continuous
 62
     7
100
AcDbPolyline
 90
       25
 70
     0
 43
0.0
 10
259.9048936091666
 20
139.6552226646321
 10
259.9051248751886
 20
139.6297524078261
 10
259.9058210574395
 20
139.6043006284611
 10
259.9069773875475
 20
139.5788744790921
 10
259.9085962496996
 20
139.5534793241391
 10
259.9106752597096
 20
139.5281223161591
 10
259.9132144175776
 20
139.5028094156161
 10
259.9162137233026
 20
139.4775465829741
 10
259.9196707926996
 20
139.4523403747451
 10
259.9235880099535
 20
139.4271973474401
 10
259.9279629908806
 20
139.4021228654751
 10
259.9327933512926
 20
139.3771246774571
 10
259.9380790911915
 20
139.3522075517551
 10
259.9438178263905
 20
139.3273905618561
 10
259.9500047885186
 20
139.3026927812471
 10
259.9566375933886
 20
139.2781195743451
 10
259.9637138568165
 20
139.2536769016161
 10
259.9712335788016
 20
139.2293707235231
 10
259.9791919909726
 20
139.2052075965781
 10
259.9875867091427
 20
139.1811928851981
 10
259.9964201174976
 20
139.1573325498471
 10
260.0056850634816
 20
139.1336331470381
 10
260.0153815470936
 20
139.1101000411881
 10
260.0255071841485
 20
139.0867391927611
 10
260.0360619746456
 20
139.0635571582691
  0
LWPOLYLINE
  5
521
330
1F
100
AcDbEntity
  8
Sichtbare_Kanten_TC_020513_DIN_
  6
Continuous
 62
     7
100
AcDbPolyline
 90
       25
 70
     0
 43
0.0
 10
258.9955746852166
 20
151.2153998716251
 10
259.0612876139886
 20
151.3072172506231
 10
259.1307198725946
 20
151.3963965280431
 10
259.2037975512745
 20
151.4828184945951
 10
259.2804062091116
 20
151.5663210256471
 10
259.3602239810235
 20
151.6465500696081
 10
259.4431030474906
 20
151.7233852250951
 10
259.5289313517816
 20
151.7967430456051
 10
259.6175968371636
 20
151.8665448530091
 10
259.7089898310906
 20
151.9327072008031
 10
259.8029958926446
 20
151.9951490266691
 10
259.8995053492796
 20
152.0537880761991
 10
259.9984037600765
 20
152.1085432870761
 10
260.0995814524896
 20
152.1593324048891
 10
260.2028476916556
 20
152.2060409887211
 10
260.3078496180787
 20
152.2485045297521
 10
260.4144394122366
 20
152.2866729600801
 10
260.5224883280995
 20
152.3205009801761
 10
260.6318604670765
 20
152.3499456746951
 10
260.7424103938346
 20
152.3749581678281
 10
260.8538281642205
 20
152.3954657419101
 10
260.9659230433706
 20
152.4114433629881
 10
261.0785591326956
 20
152.4228743417631
 10
261.1915957652335
 20
152.4297443731201
 10
261.3048946582086
 20
152.4320367677581
  0
LWPOLYLINE
  5
522
330
1F
100
AcDbEntity
  8
Sichtbare_Kanten_TC_020513_DIN_
  6
Continuous
 62
     7
100
AcDbPolyline
 90
       25
 70
     0
 43
0.0
 10
261.3048946582086
 20
151.0320369108091
 10
261.2332474910025
 20
151.0302022798431
 10
261.1619341098076
 20
151.0247186525241
 10
261.0910880290276
 20
151.0156134469881
 10
261.0208451472525
 20
151.0029176576511
 10
260.9513461314446
 20
150.9866598947421
 10
260.8827244960075
 20
150.9668675763981
 10
260.8151209079036
 20
150.9435716970341
 10
260.7486712657226
 20
150.9168008668791
 10
260.6836306773436
 20
150.8866421087161
 10
260.6203472338926
 20
150.8532635076421
 10
260.5589377604725
 20
150.8167520864381
 10
260.4995190821895
 20
150.7771877153291
 10
260.4422032557735
 20
150.7346538408171
 10
260.3871047221426
 20
150.6892327173131
 10
260.3343355380306
 20
150.6410054071321
 10
260.2840101443536
 20
150.5900553567781
 10
260.2362954341176
 20
150.5365256173981
 10
260.1914608203175
 20
150.4807225568671
 10
260.1495921336416
 20
150.4227832658661
 10
260.1107656680356
 20
150.3628281457801
 10
260.0750505648856
 20
150.3009787900821
 10
260.0425183497677
 20
150.2373532159701
 10
260.0132429324395
 20
150.1720742090121
 10
259.9872982226616
 20
150.1052609784971
  0
LWPOLYLINE
  5
523
330
1F
100
AcDbEntity
  8
Sichtbare_Kanten_TC_020513_DIN_
  6
Continuous
 62
     7
100
AcDbPolyline
 90
       25
 70
     0
 43
0.0
 10
259.9872982226616
 20
150.1052609784971
 10
259.9824034892325
 20
150.0913695199861
 10
259.9771058284046
 20
150.0757221086391
 10
259.9714886866816
 20
150.0584141118901
 10
259.9656426631216
 20
150.0395456655401
 10
259.9596512042286
 20
150.0192145212071
 10
259.9536072932486
 20
149.9975184305091
 10
259.9475943766836
 20
149.9745575292481
 10
259.9417006694085
 20
149.9504283769501
 10
259.9360143862965
 20
149.9252287252321
 10
259.9306237422236
 20
149.8990599019901
 10
259.9256169520626
 20
149.8720172746551
 10
259.9211346827746
 20
149.8447707994361
 10
259.9173438273675
 20
149.8188833101171
 10
259.9141943179376
 20
149.7944465978521
 10
259.9116265498406
 20
149.7714701993841
 10
259.9095785342466
 20
149.7499636514561
 10
259.9079954348805
 20
149.7299388749971
 10
259.9068176471006
 20
149.7114030225651
 10
259.9059807978875
 20
149.6943668229951
 10
259.9054324351556
 20
149.6788410051241
 10
259.9051081858876
 20
149.6648351056951
 10
259.9049484454396
 20
149.6523598535431
 10
259.9048983775386
 20
149.6414235933201
 10
259.9048936091666
 20
149.6320370538611
  0
SOLID
  5
524
330
1F
100
AcDbEntity
  8
Symbole_TC_020513_DIN_
 62
     7
100
AcDbTrace
 10
207.6033138686402
 20
75.9347034198746
 30
0.0
 11
207.1621653646723
 21
76.42327020187264
 31
0.0
 12
209.2382561885075
 22
77.85441459254172
 32
0.0
 13
209.2382561885075
 23
77.85441459254172
 33
0.0
  0
LEADER
  5
525
330
1F
100
AcDbEntity
  8
Symbole_TC_020513_DIN_
  6
Continuous
 62
     7
100
AcDbLeader
  3
Standard
 71
     0
 76
     3
 10
209.2382561885075
 20
77.85441459254172
 30
0.0
 10
193.5697034744366
 20
63.70658702046332
 30
0.0
 10
191.8697034744365
 20
63.70658702046332
 30
0.0
  0
MTEXT
  5
527
330
1F
100
AcDbEntity
  8
Symbole_TC_020513_DIN_
 62
     7
100
AcDbMText
 10
189.5371160892586
 20
67.55658699066103
 30
0.0
 40
3.5
 41
0.0
 71
     1
 72
     1
  1
\U+00f8\P5,5
  7
CONVERTER_13
 73
     1
 44
0.75727272727273
  0
DIMENSION
  5
532
330
1F
100
AcDbEntity
  8
Bemaßungen_TC_020513_DIN_
100
AcDbDimension
  2
*D3
 10
165.3882769046237
 20
111.7964145925416
 30
0.0
 11
160.9689044626045
 21
96.69109944929471
 31
0.0
 70
    32
  1
PG21
 71
     5
 42
-1.0
 53
90.0
  3
ME10_DIM_10
100
AcDbAlignedDimension
 13
149.3882769046236
 23
82.69241459254171
 33
0.0
 14
149.3882769046236
 24
111.7964145925411
 34
0.0
 50
90.0
100
AcDbRotatedDimension
  0
DIMENSION
  5
53D
330
1F
100
AcDbEntity
  8
Bemaßungen_TC_020513_DIN_
100
AcDbDimension
  2
*D4
 10
22.38827690462384
 20
77.8544145925415
 30
0.0
 11
18.01426599057197
 21
119.0530298722141
 31
0.0
 70
    32
  1
81
 71
     5
 42
-1.0
 53
90.0
  3
ME10_DIM_11
100
AcDbAlignedDimension
 13
41.38827690462387
 23
158.8544145925421
 33
0.0
 14
32.38827690462387
 24
77.85441459254172
 34
0.0
 50
90.0
100
AcDbRotatedDimension
  0
DIMENSION
  5
548
330
1F
100
AcDbEntity
  8
Bemaßungen_TC_020513_DIN_
100
AcDbDimension
  2
*D5
 10
277.6722061602287
 20
168.8544145925421
 30
0.0
 11
240.8398969315296
 21
173.1544145925421
 31
0.0
 70
    32
  1
74
 71
     5
 42
-1.0
 53
0.00013888888889
  3
ME10_DIM_12
100
AcDbAlignedDimension
 13
203.2382561885056
 23
77.85441459254172
 33
0.0
 14
277.6722061602285
 24
122.8544145925421
 34
0.0
100
AcDbRotatedDimension
  0
DIMENSION
  5
553
330
1F
100
AcDbEntity
  8
Bemaßungen_TC_020513_DIN_
100
AcDbDimension
  2
*D6
 10
37.38827690462389
 20
168.8544145925412
 30
0.0
 11
91.49153747761159
 21
173.2284255065931
 31
0.0
 70
    32
  1
107
 71
     5
 42
-1.0
 53
0.00013888888889
  3
ME10_DIM_13
100
AcDbAlignedDimension
 13
144.3882769046236
 23
133.8544145925421
 33
0.0
 14
37.38827690462387
 24
133.8544145925421
 34
0.0
100
AcDbRotatedDimension
  0
DIMENSION
  5
55E
330
1F
100
AcDbEntity
  8
Bemaßungen_TC_020513_DIN_
100
AcDbDimension
  2
*D7
 10
181.2382561885059
 20
77.85441459254181
 30
0.0
 11
176.8618578256136
 21
109.7080435147791
 31
0.0
 70
    32
  1
63
 71
     5
 42
-1.0
 53
90.0
  3
ME10_DIM_14
100
AcDbAlignedDimension
 13
212.5882561885106
 23
140.8544145925421
 33
0.0
 14
203.2382561885056
 24
77.85441459254172
 34
0.0
 50
90.0
100
AcDbRotatedDimension
  0
DIMENSION
  5
569
330
1F
100
AcDbEntity
  8
Bemaßungen_TC_020513_DIN_
100
AcDbDimension
  2
*D8
 10
193.2382561885056
 20
81.85441459254166
 30
0.0
 11
188.9382561885055
 21
80.07897803046802
 31
0.0
 70
    32
  1
4
 71
     5
 42
-1.0
 53
90.0
  3
ME10_DIM_15
100
AcDbAlignedDimension
 13
203.2382561885056
 23
77.85441459254172
 33
0.0
 14
203.2382561885056
 24
81.85441459254172
 34
0.0
 50
90.0
100
AcDbRotatedDimension
  0
DIMENSION
  5
574
330
1F
100
AcDbEntity
  8
Bemaßungen_TC_020513_DIN_
100
AcDbDimension
  2
*D9
 10
209.2382561885081
 20
63.85441459254166
 30
0.0
 11
232.0178741966936
 21
68.21410081355121
 31
0.0
 70
    32
  1
45
 71
     5
 42
-1.0
 53
0.00013888888889
  3
ME10_DIM_16
100
AcDbAlignedDimension
 13
254.2382561885075
 23
79.85441459254172
 33
0.0
 14
209.2382561885075
 24
79.85441459254172
 34
0.0
100
AcDbRotatedDimension
  0
DIMENSION
  5
57F
330
1F
100
AcDbEntity
  8
Bemaßungen_TC_020513_DIN_
100
AcDbDimension
  2
*D10
 10
203.2382561885057
 20
55.85441459254165
 30
0.0
 11
232.1014349061046
 21
60.21410081355121
 31
0.0
 70
    32
  1
57
 71
     5
 42
-1.0
 53
0.00013888888889
  3
ME10_DIM_17
100
AcDbAlignedDimension
 13
260.2382561885055
 23
77.85441459254172
 33
0.0
 14
203.2382561885056
 24
77.85441459254172
 34
0.0
100
AcDbRotatedDimension
  0
DIMENSION
  5
58A
330
1F
100
AcDbEntity
  8
Bemaßungen_TC_020513_DIN_
100
AcDbDimension
  2
*D11
 10
38.38827690462385
 20
63.85441459254167
 30
0.0
 11
91.41590650898945
 21
68.22842550659351
 31
0.0
 70
    32
  1
105
 71
     5
 42
-1.0
 53
0.00013888888889
  3
ME10_DIM_18
100
AcDbAlignedDimension
 13
143.3882769046236
 23
79.85441459254172
 33
0.0
 14
38.38827690462387
 24
79.85441459254172
 34
0.0
100
AcDbRotatedDimension
  0
DIMENSION
  5
595
330
1F
100
AcDbEntity
  8
Bemaßungen_TC_020513_DIN_
100
AcDbDimension
  2
*D12
 10
32.38827690462389
 20
55.85240892598154
 30
0.0
 11
91.49153747761159
 21
60.16673361902382
 31
0.0
 70
    32
  1
117
 71
     5
 42
-1.0
 53
0.00013888888889
  3
ME10_DIM_19
100
AcDbAlignedDimension
 13
149.3882769046236
 23
79.85441459254172
 33
0.0
 14
32.38827690462387
 24
79.85441459254172
 34
0.0
100
AcDbRotatedDimension
  0
ENDSEC
  0
SECTION
  2
OBJECTS
  0
DICTIONARY
  5
C
330
0
100
AcDbDictionary
281
     1
  3
ACAD_GROUP
350
D
  3
ACAD_LAYOUT
350
1A
  3
ACAD_MATERIAL
350
3B
  3
ACAD_MLEADERSTYLE
350
598
  3
ACAD_MLINESTYLE
350
17
  3
ACAD_PLOTSETTINGS
350
19
  3
ACAD_PLOTSTYLENAME
350
E
  3
ACAD_VISUALSTYLE
350
2A
  3
AcDbVariableDictionary
350
596
  0
DICTIONARY
  5
D
102
{ACAD_REACTORS
330
C
102
}
330
C
100
AcDbDictionary
281
     1
  0
DICTIONARY
  5
1A
102
{ACAD_REACTORS
330
C
102
}
330
C
100
AcDbDictionary
281
     1
  3
Layout1
350
1E
  3
Layout2
350
26
  3
Model
350
22
  0
DICTIONARY
  5
3B
102
{ACAD_REACTORS
330
C
102
}
330
C
100
AcDbDictionary
281
     1
  3
ByBlock
350
3D
  3
ByLayer
350
3C
  3
Global
350
3E
  0
DICTIONARY
  5
598
102
{ACAD_REACTORS
330
C
102
}
330
C
100
AcDbDictionary
281
     1
  0
DICTIONARY
  5
17
102
{ACAD_REACTORS
330
C
102
}
330
C
100
AcDbDictionary
281
     1
  3
Standard
350
18
  0
DICTIONARY
  5
19
102
{ACAD_REACTORS
330
C
102
}
330
C
100
AcDbDictionary
281
     1
  0
ACDBDICTIONARYWDFLT
  5
E
102
{ACAD_REACTORS
330
C
102
}
330
C
100
AcDbDictionary
281
     1
  3
Normal
350
F
100
AcDbDictionaryWithDefault
340
F
  0
DICTIONARY
  5
2A
102
{ACAD_REACTORS
330
C
102
}
330
C
100
AcDbDictionary
281
     1
  3
2dWireframe
350
2F
  3
3D Hidden
350
31
  3
3dWireframe
350
30
  3
Basic
350
32
  3
Brighten
350
36
  3
ColorChange
350
3A
  3
Conceptual
350
34
  3
Dim
350
35
  3
Facepattern
350
39
  3
Flat
350
2B
  3
FlatWithEdges
350
2C
  3
Gouraud
350
2D
  3
GouraudWithEdges
350
2E
  3
Linepattern
350
38
  3
Realistic
350
33
  3
Thicken
350
37
  0
DICTIONARY
  5
596
102
{ACAD_REACTORS
330
C
102
}
330
C
100
AcDbDictionary
281
     1
  3
DIMASSOC
350
599
  3
HIDETEXT
350
59A
  0
LAYOUT
  5
1E
102
{ACAD_REACTORS
330
1A
102
}
330
1A
100
AcDbPlotSettings
  1

  2
none_device
  4

  6

 40
0.0
 41
0.0
 42
0.0
 43
0.0
 44
0.0
 45
0.0
 46
0.0
 47
0.0
 48
0.0
 49
0.0
140
0.0
141
0.0
142
1.0
143
1.0
 70
   688
 72
     0
 73
     0
 74
     5
  7

 75
    16
147
1.0
148
0.0
149
0.0
100
AcDbLayout
  1
Layout1
 70
     1
 71
     1
 10
0.0
 20
0.0
 11
12.0
 21
9.0
 12
0.0
 22
0.0
 32
0.0
 14
1.00000000000000E+20
 24
1.00000000000000E+20
 34
1.00000000000000E+20
 15
-1.00000000000000E+20
 25
-1.00000000000000E+20
 35
-1.00000000000000E+20
146
0.0
 13
0.0
 23
0.0
 33
0.0
 16
1.0
 26
0.0
 36
0.0
 17
0.0
 27
1.0
 37
0.0
 76
     0
330
1B
  0
LAYOUT
  5
26
102
{ACAD_REACTORS
330
1A
102
}
330
1A
100
AcDbPlotSettings
  1

  2
none_device
  4

  6

 40
0.0
 41
0.0
 42
0.0
 43
0.0
 44
0.0
 45
0.0
 46
0.0
 47
0.0
 48
0.0
 49
0.0
140
0.0
141
0.0
142
1.0
143
1.0
 70
   688
 72
     0
 73
     0
 74
     5
  7

 75
    16
147
1.0
148
0.0
149
0.0
100
AcDbLayout
  1
Layout2
 70
     1
 71
     2
 10
0.0
 20
0.0
 11
0.0
 21
0.0
 12
0.0
 22
0.0
 32
0.0
 14
0.0
 24
0.0
 34
0.0
 15
0.0
 25
0.0
 35
0.0
146
0.0
 13
0.0
 23
0.0
 33
0.0
 16
1.0
 26
0.0
 36
0.0
 17
0.0
 27
1.0
 37
0.0
 76
     0
330
23
  0
LAYOUT
  5
22
102
{ACAD_REACTORS
330
1A
102
}
330
1A
100
AcDbPlotSettings
  1

  2
none_device
  4

  6

 40
0.0
 41
0.0
 42
0.0
 43
0.0
 44
0.0
 45
0.0
 46
0.0
 47
0.0
 48
0.0
 49
0.0
140
0.0
141
0.0
142
1.0
143
1.0
 70
  1712
 72
     0
 73
     0
 74
     0
  7

 75
     0
147
1.0
148
0.0
149
0.0
100
AcDbLayout
  1
Model
 70
     1
 71
     0
 10
0.0
 20
0.0
 11
12.0
 21
9.0
 12
0.0
 22
0.0
 32
0.0
 14
0.0
 24
0.0
 34
0.0
 15
297.0000000000001
 25
210.0000000000001
 35
0.0
146
0.0
 13
0.0
 23
0.0
 33
0.0
 16
1.0
 26
0.0
 36
0.0
 17
0.0
 27
1.0
 37
0.0
 76
     0
330
1F
331
29
  0
MATERIAL
  5
3D
102
{ACAD_REACTORS
330
3B
102
}
102
{ACAD_XDICTIONARY
360
5BD
102
}
330
3B
100
AcDbMaterial
  1
ByBlock
  0
MATERIAL
  5
3C
102
{ACAD_REACTORS
330
3B
102
}
102
{ACAD_XDICTIONARY
360
5BB
102
}
330
3B
100
AcDbMaterial
  1
ByLayer
  0
MATERIAL
  5
3E
102
{ACAD_REACTORS
330
3B
102
}
102
{ACAD_XDICTIONARY
360
5BF
102
}
330
3B
100
AcDbMaterial
  1
Global
  0
MLINESTYLE
  5
18
102
{ACAD_REACTORS
330
17
102
}
330
17
100
AcDbMlineStyle
  2
Standard
 70
     0
  3

 62
   256
 51
90.0
 52
90.0
 71
     2
 49
0.5
 62
   256
  6
BYLAYER
 49
-0.5
 62
   256
  6
BYLAYER
  0
ACDBPLACEHOLDER
  5
F
102
{ACAD_REACTORS
330
E
102
}
330
E
  0
VISUALSTYLE
  5
2F
102
{ACAD_REACTORS
330
2A
102
}
102
{ACAD_XDICTIONARY
360
5A3
102
}
330
2A
100
AcDbVisualStyle
  2
2dWireframe
 70
     4
 71
     0
 72
     2
 73
     0
 90
        0
 40
-0.6
 41
-30.0
 62
     5
 63
     7
 74
     1
 91
        4
 64
     7
 65
   257
 75
     1
175
     1
 42
1.0
 92
        0
 66
   257
 43
1.0
 76
     1
 77
     6
 78
     2
 67
     7
 79
     5
170
     0
171
     0
290
     0
174
     0
 93
        1
 44
0.0
173
     0
291
     0
 45
0.0
1001
ACAD
1000
AcDbSavedByObjectVersion
1070
     0
  0
VISUALSTYLE
  5
31
102
{ACAD_REACTORS
330
2A
102
}
102
{ACAD_XDICTIONARY
360
5A7
102
}
330
2A
100
AcDbVisualStyle
  2
3D Hidden
 70
     6
 71
     1
 72
     2
 73
     2
 90
        0
 40
-0.6
 41
-30.0
 62
     5
 63
     7
 74
     2
 91
        2
 64
     7
 65
   257
 75
     2
175
     1
 42
40.0
 92
        0
 66
   257
 43
1.0
 76
     1
 77
     6
 78
     2
 67
     7
 79
     3
170
     0
171
     0
290
     0
174
     0
 93
        1
 44
0.0
173
     0
291
     0
 45
0.0
1001
ACAD
1000
AcDbSavedByObjectVersion
1070
     0
  0
VISUALSTYLE
  5
30
102
{ACAD_REACTORS
330
2A
102
}
102
{ACAD_XDICTIONARY
360
5A5
102
}
330
2A
100
AcDbVisualStyle
  2
3dWireframe
 70
     5
 71
     0
 72
     2
 73
     0
 90
        0
 40
-0.6
 41
-30.0
 62
     5
 63
     7
 74
     1
 91
        4
 64
     7
 65
   257
 75
     1
175
     1
 42
1.0
 92
        0
 66
   257
 43
1.0
 76
     1
 77
     6
 78
     2
 67
     7
 79
     5
170
     0
171
     0
290
     0
174
     0
 93
        1
 44
0.0
173
     0
291
     0
 45
0.0
1001
ACAD
1000
AcDbSavedByObjectVersion
1070
     0
  0
VISUALSTYLE
  5
32
102
{ACAD_REACTORS
330
2A
102
}
102
{ACAD_XDICTIONARY
360
5A9
102
}
330
2A
100
AcDbVisualStyle
  2
Basic
 70
     7
 71
     1
 72
     0
 73
     1
 90
        0
 40
-0.6
 41
-30.0
 62
     5
 63
     7
 74
     0
 91
        4
 64
     7
 65
   257
 75
     1
175
     1
 42
1.0
 92
        8
 66
     7
 43
1.0
 76
     1
 77
     6
 78
     2
 67
     7
 79
     5
170
     0
171
     0
290
     0
174
     0
 93
        1
 44
0.0
173
     0
291
     1
 45
0.0
1001
ACAD
1000
AcDbSavedByObjectVersion
1070
     0
  0
VISUALSTYLE
  5
36
102
{ACAD_REACTORS
330
2A
102
}
102
{ACAD_XDICTIONARY
360
5B1
102
}
330
2A
100
AcDbVisualStyle
  2
Brighten
 70
    12
 71
     2
 72
     2
 73
     0
 90
        0
 40
-0.6
 41
-30.0
 62
     5
 63
     7
 74
     1
 91
        4
 64
     7
 65
   257
 75
     1
175
     1
 42
1.0
 92
        8
 66
     7
 43
1.0
 76
     1
 77
     6
 78
     2
 67
     7
 79
     5
170
     0
171
     0
290
     0
174
     0
 93
        1
 44
50.0
173
     0
291
     1
 45
0.0
1001
ACAD
1000
AcDbSavedByObjectVersion
1070
     0
  0
VISUALSTYLE
  5
3A
102
{ACAD_REACTORS
330
2A
102
}
102
{ACAD_XDICTIONARY
360
5B9
102
}
330
2A
100
AcDbVisualStyle
  2
ColorChange
 70
    16
 71
     2
 72
     2
 73
     3
 90
        0
 40
-0.6
 41
-30.0
 62
     5
 63
     8
 74
     1
 91
        4
 64
     7
 65
   257
 75
     1
175
     1
 42
1.0
 92
        8
 66
     8
 43
1.0
 76
     1
 77
     6
 78
     2
 67
     7
 79
     5
170
     0
171
     0
290
     0
174
     0
 93
        1
 44
0.0
173
     0
291
     1
 45
0.0
1001
ACAD
1000
AcDbSavedByObjectVersion
1070
     0
  0
VISUALSTYLE
  5
34
102
{ACAD_REACTORS
330
2A
102
}
102
{ACAD_XDICTIONARY
360
5AD
102
}
330
2A
100
AcDbVisualStyle
  2
Conceptual
 70
     9
 71
     3
 72
     2
 73
     0
 90
        0
 40
-0.6
 41
-30.0
 62
     5
 63
     7
 74
     2
 91
        2
 64
     7
 65
   257
 75
     1
175
     1
 42
40.0
 92
        8
 66
     7
 43
1.0
 76
     1
 77
     6
 78
     2
 67
     7
 79
     3
170
     0
171
     0
290
     0
174
     0
 93
        1
 44
0.0
173
     0
291
     0
 45
0.0
1001
ACAD
1000
AcDbSavedByObjectVersion
1070
     0
  0
VISUALSTYLE
  5
35
102
{ACAD_REACTORS
330
2A
102
}
102
{ACAD_XDICTIONARY
360
5AF
102
}
330
2A
100
AcDbVisualStyle
  2
Dim
 70
    11
 71
     2
 72
     2
 73
     0
 90
        0
 40
-0.6
 41
-30.0
 62
     5
 63
     7
 74
     1
 91
        4
 64
     7
 65
   257
 75
     1
175
     1
 42
1.0
 92
        8
 66
     7
 43
1.0
 76
     1
 77
     6
 78
     2
 67
     7
 79
     5
170
     0
171
     0
290
     0
174
     0
 93
        1
 44
-50.0
173
     0
291
     1
 45
0.0
1001
ACAD
1000
AcDbSavedByObjectVersion
1070
     0
  0
VISUALSTYLE
  5
39
102
{ACAD_REACTORS
330
2A
102
}
102
{ACAD_XDICTIONARY
360
5B7
102
}
330
2A
100
AcDbVisualStyle
  2
Facepattern
 70
    15
 71
     2
 72
     2
 73
     0
 90
        0
 40
-0.6
 41
-30.0
 62
     5
 63
     7
 74
     1
 91
        4
 64
     7
 65
   257
 75
     1
175
     1
 42
1.0
 92
        8
 66
     7
 43
1.0
 76
     1
 77
     6
 78
     2
 67
     7
 79
     5
170
     0
171
     0
290
     0
174
     0
 93
        1
 44
0.0
173
     0
291
     1
 45
0.0
1001
ACAD
1000
AcDbSavedByObjectVersion
1070
     0
  0
VISUALSTYLE
  5
2B
102
{ACAD_REACTORS
330
2A
102
}
102
{ACAD_XDICTIONARY
360
59B
102
}
330
2A
100
AcDbVisualStyle
  2
Flat
 70
     0
 71
     2
 72
     1
 73
     1
 90
        2
 40
-0.6
 41
30.0
 62
     5
 63
     7
 74
     0
 91
        4
 64
     7
 65
   257
 75
     1
175
     1
 42
1.0
 92
        8
 66
     7
 43
1.0
 76
     1
 77
     6
 78
     2
 67
     7
 79
     5
170
     0
171
     0
290
     0
174
     0
 93
       13
 44
0.0
173
     0
291
     1
 45
0.0
1001
ACAD
1000
AcDbSavedByObjectVersion
1070
     0
  0
VISUALSTYLE
  5
2C
102
{ACAD_REACTORS
330
2A
102
}
102
{ACAD_XDICTIONARY
360
59D
102
}
330
2A
100
AcDbVisualStyle
  2
FlatWithEdges
 70
     1
 71
     2
 72
     1
 73
     1
 90
        2
 40
-0.6
 41
30.0
 62
     5
 63
     7
 74
     1
 91
        4
 64
     7
 65
   257
 75
     1
175
     1
 42
1.0
 92
        0
 66
   257
 43
1.0
 76
     1
 77
     6
 78
     2
 67
     7
 79
     5
170
     0
171
     0
290
     0
174
     0
 93
       13
 44
0.0
173
     0
291
     1
 45
0.0
1001
ACAD
1000
AcDbSavedByObjectVersion
1070
     0
  0
VISUALSTYLE
  5
2D
102
{ACAD_REACTORS
330
2A
102
}
102
{ACAD_XDICTIONARY
360
59F
102
}
330
2A
100
AcDbVisualStyle
  2
Gouraud
 70
     2
 71
     2
 72
     2
 73
     1
 90
        2
 40
-0.6
 41
30.0
 62
     5
 63
     7
 74
     0
 91
        4
 64
     7
 65
   257
 75
     1
175
     1
 42
1.0
 92
        0
 66
     7
 43
1.0
 76
     1
 77
     6
 78
     2
 67
     7
 79
     5
170
     0
171
     0
290
     0
174
     0
 93
       13
 44
0.0
173
     0
291
     1
 45
0.0
1001
ACAD
1000
AcDbSavedByObjectVersion
1070
     0
  0
VISUALSTYLE
  5
2E
102
{ACAD_REACTORS
330
2A
102
}
102
{ACAD_XDICTIONARY
360
5A1
102
}
330
2A
100
AcDbVisualStyle
  2
GouraudWithEdges
 70
     3
 71
     2
 72
     2
 73
     1
 90
        2
 40
-0.6
 41
30.0
 62
     5
 63
     7
 74
     1
 91
        4
 64
     7
 65
   257
 75
     1
175
     1
 42
1.0
 92
        0
 66
   257
 43
1.0
 76
     1
 77
     6
 78
     2
 67
     7
 79
     5
170
     0
171
     0
290
     0
174
     0
 93
       13
 44
0.0
173
     0
291
     1
 45
0.0
1001
ACAD
1000
AcDbSavedByObjectVersion
1070
     0
  0
VISUALSTYLE
  5
38
102
{ACAD_REACTORS
330
2A
102
}
102
{ACAD_XDICTIONARY
360
5B5
102
}
330
2A
100
AcDbVisualStyle
  2
Linepattern
 70
    14
 71
     2
 72
     2
 73
     0
 90
        0
 40
-0.6
 41
-30.0
 62
     5
 63
     7
 74
     1
 91
        4
 64
     7
 65
   257
 75
     7
175
     7
 42
1.0
 92
        8
 66
     7
 43
1.0
 76
     1
 77
     6
 78
     2
 67
     7
 79
     5
170
     0
171
     0
290
     0
174
     0
 93
        1
 44
0.0
173
     0
291
     1
 45
0.0
1001
ACAD
1000
AcDbSavedByObjectVersion
1070
     0
  0
VISUALSTYLE
  5
33
102
{ACAD_REACTORS
330
2A
102
}
102
{ACAD_XDICTIONARY
360
5AB
102
}
330
2A
100
AcDbVisualStyle
  2
Realistic
 70
     8
 71
     2
 72
     2
 73
     0
 90
        0
 40
-0.6
 41
-30.0
 62
     5
 63
     7
 74
     1
 91
        0
 64
     7
 65
   257
 75
     1
175
     1
 42
1.0
 92
        8
 66
     8
 43
1.0
 76
     1
 77
     6
 78
     2
 67
     7
 79
     5
170
     0
171
     0
290
     0
174
     0
 93
       13
 44
0.0
173
     0
291
     0
 45
0.0
1001
ACAD
1000
AcDbSavedByObjectVersion
1070
     0
  0
VISUALSTYLE
  5
37
102
{ACAD_REACTORS
330
2A
102
}
102
{ACAD_XDICTIONARY
360
5B3
102
}
330
2A
100
AcDbVisualStyle
  2
Thicken
 70
    13
 71
     2
 72
     2
 73
     0
 90
        0
 40
-0.6
 41
-30.0
 62
     5
 63
     7
 74
     1
 91
        4
 64
     7
 65
   257
 75
     1
175
     1
 42
1.0
 92
       12
 66
     7
 43
1.0
 76
     1
 77
     6
 78
     2
 67
     7
 79
     5
170
     0
171
     0
290
     0
174
     0
 93
        1
 44
0.0
173
     0
291
     1
 45
0.0
1001
ACAD
1000
AcDbSavedByObjectVersion
1070
     0
  0
DICTIONARYVAR
  5
599
102
{ACAD_REACTORS
330
596
102
}
330
596
100
DictionaryVariables
280
     0
  1
2
  0
DICTIONARYVAR
  5
59A
102
{ACAD_REACTORS
330
596
102
}
330
596
100
DictionaryVariables
280
     0
  1
1
  0
DICTIONARY
  5
5BD
330
3D
100
AcDbDictionary
280
     1
281
     1
  3
ACAD_XREC_ROUNDTRIP
360
5BE
  0
DICTIONARY
  5
5BB
330
3C
100
AcDbDictionary
280
     1
281
     1
  3
ACAD_XREC_ROUNDTRIP
360
5BC
  0
DICTIONARY
  5
5BF
330
3E
100
AcDbDictionary
280
     1
281
     1
  3
ACAD_XREC_ROUNDTRIP
360
5C0
  0
DICTIONARY
  5
5A3
330
2F
100
AcDbDictionary
280
     1
281
     1
  3
ACAD_XREC_ROUNDTRIP
360
5A4
  0
DICTIONARY
  5
5A7
330
31
100
AcDbDictionary
280
     1
281
     1
  3
ACAD_XREC_ROUNDTRIP
360
5A8
  0
DICTIONARY
  5
5A5
330
30
100
AcDbDictionary
280
     1
281
     1
  3
ACAD_XREC_ROUNDTRIP
360
5A6
  0
DICTIONARY
  5
5A9
330
32
100
AcDbDictionary
280
     1
281
     1
  3
ACAD_XREC_ROUNDTRIP
360
5AA
  0
DICTIONARY
  5
5B1
330
36
100
AcDbDictionary
280
     1
281
     1
  3
ACAD_XREC_ROUNDTRIP
360
5B2
  0
DICTIONARY
  5
5B9
330
3A
100
AcDbDictionary
280
     1
281
     1
  3
ACAD_XREC_ROUNDTRIP
360
5BA
  0
DICTIONARY
  5
5AD
330
34
100
AcDbDictionary
280
     1
281
     1
  3
ACAD_XREC_ROUNDTRIP
360
5AE
  0
DICTIONARY
  5
5AF
330
35
100
AcDbDictionary
280
     1
281
     1
  3
ACAD_XREC_ROUNDTRIP
360
5B0
  0
DICTIONARY
  5
5B7
330
39
100
AcDbDictionary
280
     1
281
     1
  3
ACAD_XREC_ROUNDTRIP
360
5B8
  0
DICTIONARY
  5
59B
330
2B
100
AcDbDictionary
280
     1
281
     1
  3
ACAD_XREC_ROUNDTRIP
360
59C
  0
DICTIONARY
  5
59D
330
2C
100
AcDbDictionary
280
     1
281
     1
  3
ACAD_XREC_ROUNDTRIP
360
59E
  0
DICTIONARY
  5
59F
330
2D
100
AcDbDictionary
280
     1
281
     1
  3
ACAD_XREC_ROUNDTRIP
360
5A0
  0
DICTIONARY
  5
5A1
330
2E
100
AcDbDictionary
280
     1
281
     1
  3
ACAD_XREC_ROUNDTRIP
360
5A2
  0
DICTIONARY
  5
5B5
330
38
100
AcDbDictionary
280
     1
281
     1
  3
ACAD_XREC_ROUNDTRIP
360
5B6
  0
DICTIONARY
  5
5AB
330
33
100
AcDbDictionary
280
     1
281
     1
  3
ACAD_XREC_ROUNDTRIP
360
5AC
  0
DICTIONARY
  5
5B3
330
37
100
AcDbDictionary
280
     1
281
     1
  3
ACAD_XREC_ROUNDTRIP
360
5B4
  0
XRECORD
  5
5BE
102
{ACAD_REACTORS
330
5BD
102
}
330
5BD
100
AcDbXrecord
280
     1
102
MATERIAL
148
0.0
149
0.0
149
0.0
 93
        0
 94
      127
282
     0
 72
     1
 77
     1
171
     1
175
     1
179
     1
273
     0
  0
XRECORD
  5
5BC
102
{ACAD_REACTORS
330
5BB
102
}
330
5BB
100
AcDbXrecord
280
     1
102
MATERIAL
148
0.0
149
0.0
149
0.0
 93
        0
 94
      127
282
     0
 72
     1
 77
     1
171
     1
175
     1
179
     1
273
     0
  0
XRECORD
  5
5C0
102
{ACAD_REACTORS
330
5BF
102
}
330
5BF
100
AcDbXrecord
280
     1
102
MATERIAL
148
0.0
149
0.0
149
0.0
 93
        0
 94
      127
282
     0
 72
     1
 77
     1
171
     1
175
     1
179
     1
273
     0
  0
XRECORD
  5
5A4
102
{ACAD_REACTORS
330
5A3
102
}
330
5A3
100
AcDbXrecord
280
     1
102
RTVSPropertyOp0
 70
     1
102
RTVSPropertyOp1
 70
     1
102
RTVSPropertyOp2
 70
     1
102
RTVSPropertyOp3
 70
     1
102
RTVSPropertyOp4
 70
     1
102
RTVSPropertyOp5
 70
     1
102
RTVSPropertyOp6
 70
     1
102
RTVSPropertyOp7
 70
     1
102
RTVSPropertyOp8
 70
     1
102
RTVSPropertyOp9
 70
     1
102
RTVSPropertyOp10
 70
     1
102
RTVSPropertyOp11
 70
     1
102
RTVSPropertyOp12
 70
     1
102
RTVSPropertyOp13
 70
     1
102
RTVSPropertyOp14
 70
     1
102
RTVSPropertyOp15
 70
     1
102
RTVSPropertyOp16
 70
     1
102
RTVSPropertyOp17
 70
     1
102
RTVSPropertyOp18
 70
     1
102
RTVSPropertyOp19
 70
     1
102
RTVSPropertyOp20
 70
     1
102
RTVSPropertyOp21
 70
     1
102
RTVSPropertyOp22
 70
     1
102
RTVSPropertyOp23
 70
     1
102
RTVSPropertyOp24
 70
     1
102
RTVSPropertyOp25
 70
     1
102
RTVSPropertyOp26
 70
     1
102
RTVSPropertyOp27
 70
     1
102
RTVSPropertyOp28
 70
     1
102
RTVSPropertyOp29
 70
     1
102
RTVSPropertyOp30
 70
     1
102
RTVSPropertyOp31
 70
     1
102
RTVSPropertyOp32
 70
     1
  0
XRECORD
  5
5A8
102
{ACAD_REACTORS
330
5A7
102
}
330
5A7
100
AcDbXrecord
280
     1
102
RTVSPropertyOp0
 70
     1
102
RTVSPropertyOp1
 70
     1
102
RTVSPropertyOp2
 70
     1
102
RTVSPropertyOp3
 70
     1
102
RTVSPropertyOp4
 70
     1
102
RTVSPropertyOp5
 70
     1
102
RTVSPropertyOp6
 70
     1
102
RTVSPropertyOp7
 70
     1
102
RTVSPropertyOp8
 70
     1
102
RTVSPropertyOp9
 70
     1
102
RTVSPropertyOp10
 70
     1
102
RTVSPropertyOp11
 70
     1
102
RTVSPropertyOp12
 70
     1
102
RTVSPropertyOp13
 70
     1
102
RTVSPropertyOp14
 70
     1
102
RTVSPropertyOp15
 70
     1
102
RTVSPropertyOp16
 70
     1
102
RTVSPropertyOp17
 70
     1
102
RTVSPropertyOp18
 70
     1
102
RTVSPropertyOp19
 70
     1
102
RTVSPropertyOp20
 70
     1
102
RTVSPropertyOp21
 70
     1
102
RTVSPropertyOp22
 70
     1
102
RTVSPropertyOp23
 70
     1
102
RTVSPropertyOp24
 70
     1
102
RTVSPropertyOp25
 70
     1
102
RTVSPropertyOp26
 70
     1
102
RTVSPropertyOp27
 70
     1
102
RTVSPropertyOp28
 70
     1
102
RTVSPropertyOp29
 70
     1
102
RTVSPropertyOp30
 70
     1
102
RTVSPropertyOp31
 70
     1
102
RTVSPropertyOp32
 70
     1
  0
XRECORD
  5
5A6
102
{ACAD_REACTORS
330
5A5
102
}
330
5A5
100
AcDbXrecord
280
     1
102
RTVSPropertyOp0
 70
     1
102
RTVSPropertyOp1
 70
     1
102
RTVSPropertyOp2
 70
     1
102
RTVSPropertyOp3
 70
     1
102
RTVSPropertyOp4
 70
     1
102
RTVSPropertyOp5
 70
     1
102
RTVSPropertyOp6
 70
     1
102
RTVSPropertyOp7
 70
     1
102
RTVSPropertyOp8
 70
     1
102
RTVSPropertyOp9
 70
     1
102
RTVSPropertyOp10
 70
     1
102
RTVSPropertyOp11
 70
     1
102
RTVSPropertyOp12
 70
     1
102
RTVSPropertyOp13
 70
     1
102
RTVSPropertyOp14
 70
     1
102
RTVSPropertyOp15
 70
     1
102
RTVSPropertyOp16
 70
     1
102
RTVSPropertyOp17
 70
     1
102
RTVSPropertyOp18
 70
     1
102
RTVSPropertyOp19
 70
     1
102
RTVSPropertyOp20
 70
     1
102
RTVSPropertyOp21
 70
     1
102
RTVSPropertyOp22
 70
     1
102
RTVSPropertyOp23
 70
     1
102
RTVSPropertyOp24
 70
     1
102
RTVSPropertyOp25
 70
     1
102
RTVSPropertyOp26
 70
     1
102
RTVSPropertyOp27
 70
     1
102
RTVSPropertyOp28
 70
     1
102
RTVSPropertyOp29
 70
     1
102
RTVSPropertyOp30
 70
     1
102
RTVSPropertyOp31
 70
     1
102
RTVSPropertyOp32
 70
     1
  0
XRECORD
  5
5AA
102
{ACAD_REACTORS
330
5A9
102
}
330
5A9
100
AcDbXrecord
280
     1
102
RTVSPropertyOp0
 70
     1
102
RTVSPropertyOp1
 70
     1
102
RTVSPropertyOp2
 70
     1
102
RTVSPropertyOp3
 70
     1
102
RTVSPropertyOp4
 70
     1
102
RTVSPropertyOp5
 70
     1
102
RTVSPropertyOp6
 70
     1
102
RTVSPropertyOp7
 70
     1
102
RTVSPropertyOp8
 70
     1
102
RTVSPropertyOp9
 70
     1
102
RTVSPropertyOp10
 70
     1
102
RTVSPropertyOp11
 70
     1
102
RTVSPropertyOp12
 70
     1
102
RTVSPropertyOp13
 70
     1
102
RTVSPropertyOp14
 70
     1
102
RTVSPropertyOp15
 70
     1
102
RTVSPropertyOp16
 70
     1
102
RTVSPropertyOp17
 70
     1
102
RTVSPropertyOp18
 70
     1
102
RTVSPropertyOp19
 70
     1
102
RTVSPropertyOp20
 70
     1
102
RTVSPropertyOp21
 70
     1
102
RTVSPropertyOp22
 70
     1
102
RTVSPropertyOp23
 70
     1
102
RTVSPropertyOp24
 70
     1
102
RTVSPropertyOp25
 70
     1
102
RTVSPropertyOp26
 70
     1
102
RTVSPropertyOp27
 70
     1
102
RTVSPropertyOp28
 70
     1
102
RTVSPropertyOp29
 70
     1
102
RTVSPropertyOp30
 70
     1
102
RTVSPropertyOp31
 70
     1
102
RTVSPropertyOp32
 70
     1
  0
XRECORD
  5
5B2
102
{ACAD_REACTORS
330
5B1
102
}
330
5B1
100
AcDbXrecord
280
     1
102
RTVSPropertyOp0
 70
     1
102
RTVSPropertyOp1
 70
     1
102
RTVSPropertyOp2
 70
     1
102
RTVSPropertyOp3
 70
     1
102
RTVSPropertyOp4
 70
     1
102
RTVSPropertyOp5
 70
     1
102
RTVSPropertyOp6
 70
     1
102
RTVSPropertyOp7
 70
     1
102
RTVSPropertyOp8
 70
     1
102
RTVSPropertyOp9
 70
     1
102
RTVSPropertyOp10
 70
     1
102
RTVSPropertyOp11
 70
     1
102
RTVSPropertyOp12
 70
     1
102
RTVSPropertyOp13
 70
     1
102
RTVSPropertyOp14
 70
     1
102
RTVSPropertyOp15
 70
     1
102
RTVSPropertyOp16
 70
     1
102
RTVSPropertyOp17
 70
     1
102
RTVSPropertyOp18
 70
     1
102
RTVSPropertyOp19
 70
     1
102
RTVSPropertyOp20
 70
     1
102
RTVSPropertyOp21
 70
     1
102
RTVSPropertyOp22
 70
     1
102
RTVSPropertyOp23
 70
     1
102
RTVSPropertyOp24
 70
     1
102
RTVSPropertyOp25
 70
     1
102
RTVSPropertyOp26
 70
     1
102
RTVSPropertyOp27
 70
     1
102
RTVSPropertyOp28
 70
     1
102
RTVSPropertyOp29
 70
     1
102
RTVSPropertyOp30
 70
     1
102
RTVSPropertyOp31
 70
     1
102
RTVSPropertyOp32
 70
     1
  0
XRECORD
  5
5BA
102
{ACAD_REACTORS
330
5B9
102
}
330
5B9
100
AcDbXrecord
280
     1
102
RTVSPropertyOp0
 70
     1
102
RTVSPropertyOp1
 70
     1
102
RTVSPropertyOp2
 70
     1
102
RTVSPropertyOp3
 70
     1
102
RTVSPropertyOp4
 70
     1
102
RTVSPropertyOp5
 70
     1
102
RTVSPropertyOp6
 70
     1
102
RTVSPropertyOp7
 70
     1
102
RTVSPropertyOp8
 70
     1
102
RTVSPropertyOp9
 70
     1
102
RTVSPropertyOp10
 70
     1
102
RTVSPropertyOp11
 70
     1
102
RTVSPropertyOp12
 70
     1
102
RTVSPropertyOp13
 70
     1
102
RTVSPropertyOp14
 70
     1
102
RTVSPropertyOp15
 70
     1
102
RTVSPropertyOp16
 70
     1
102
RTVSPropertyOp17
 70
     1
102
RTVSPropertyOp18
 70
     1
102
RTVSPropertyOp19
 70
     1
102
RTVSPropertyOp20
 70
     1
102
RTVSPropertyOp21
 70
     1
102
RTVSPropertyOp22
 70
     1
102
RTVSPropertyOp23
 70
     1
102
RTVSPropertyOp24
 70
     1
102
RTVSPropertyOp25
 70
     1
102
RTVSPropertyOp26
 70
     1
102
RTVSPropertyOp27
 70
     1
102
RTVSPropertyOp28
 70
     1
102
RTVSPropertyOp29
 70
     1
102
RTVSPropertyOp30
 70
     1
102
RTVSPropertyOp31
 70
     1
102
RTVSPropertyOp32
 70
     1
  0
XRECORD
  5
5AE
102
{ACAD_REACTORS
330
5AD
102
}
330
5AD
100
AcDbXrecord
280
     1
102
RTVSPropertyOp0
 70
     1
102
RTVSPropertyOp1
 70
     1
102
RTVSPropertyOp2
 70
     1
102
RTVSPropertyOp3
 70
     1
102
RTVSPropertyOp4
 70
     1
102
RTVSPropertyOp5
 70
     1
102
RTVSPropertyOp6
 70
     1
102
RTVSPropertyOp7
 70
     1
102
RTVSPropertyOp8
 70
     1
102
RTVSPropertyOp9
 70
     1
102
RTVSPropertyOp10
 70
     1
102
RTVSPropertyOp11
 70
     1
102
RTVSPropertyOp12
 70
     1
102
RTVSPropertyOp13
 70
     1
102
RTVSPropertyOp14
 70
     1
102
RTVSPropertyOp15
 70
     1
102
RTVSPropertyOp16
 70
     1
102
RTVSPropertyOp17
 70
     1
102
RTVSPropertyOp18
 70
     1
102
RTVSPropertyOp19
 70
     1
102
RTVSPropertyOp20
 70
     1
102
RTVSPropertyOp21
 70
     1
102
RTVSPropertyOp22
 70
     1
102
RTVSPropertyOp23
 70
     1
102
RTVSPropertyOp24
 70
     1
102
RTVSPropertyOp25
 70
     1
102
RTVSPropertyOp26
 70
     1
102
RTVSPropertyOp27
 70
     1
102
RTVSPropertyOp28
 70
     1
102
RTVSPropertyOp29
 70
     1
102
RTVSPropertyOp30
 70
     1
102
RTVSPropertyOp31
 70
     1
102
RTVSPropertyOp32
 70
     1
  0
XRECORD
  5
5B0
102
{ACAD_REACTORS
330
5AF
102
}
330
5AF
100
AcDbXrecord
280
     1
102
RTVSPropertyOp0
 70
     1
102
RTVSPropertyOp1
 70
     1
102
RTVSPropertyOp2
 70
     1
102
RTVSPropertyOp3
 70
     1
102
RTVSPropertyOp4
 70
     1
102
RTVSPropertyOp5
 70
     1
102
RTVSPropertyOp6
 70
     1
102
RTVSPropertyOp7
 70
     1
102
RTVSPropertyOp8
 70
     1
102
RTVSPropertyOp9
 70
     1
102
RTVSPropertyOp10
 70
     1
102
RTVSPropertyOp11
 70
     1
102
RTVSPropertyOp12
 70
     1
102
RTVSPropertyOp13
 70
     1
102
RTVSPropertyOp14
 70
     1
102
RTVSPropertyOp15
 70
     1
102
RTVSPropertyOp16
 70
     1
102
RTVSPropertyOp17
 70
     1
102
RTVSPropertyOp18
 70
     1
102
RTVSPropertyOp19
 70
     1
102
RTVSPropertyOp20
 70
     1
102
RTVSPropertyOp21
 70
     1
102
RTVSPropertyOp22
 70
     1
102
RTVSPropertyOp23
 70
     1
102
RTVSPropertyOp24
 70
     1
102
RTVSPropertyOp25
 70
     1
102
RTVSPropertyOp26
 70
     1
102
RTVSPropertyOp27
 70
     1
102
RTVSPropertyOp28
 70
     1
102
RTVSPropertyOp29
 70
     1
102
RTVSPropertyOp30
 70
     1
102
RTVSPropertyOp31
 70
     1
102
RTVSPropertyOp32
 70
     1
  0
XRECORD
  5
5B8
102
{ACAD_REACTORS
330
5B7
102
}
330
5B7
100
AcDbXrecord
280
     1
102
RTVSPropertyOp0
 70
     1
102
RTVSPropertyOp1
 70
     1
102
RTVSPropertyOp2
 70
     1
102
RTVSPropertyOp3
 70
     1
102
RTVSPropertyOp4
 70
     1
102
RTVSPropertyOp5
 70
     1
102
RTVSPropertyOp6
 70
     1
102
RTVSPropertyOp7
 70
     1
102
RTVSPropertyOp8
 70
     1
102
RTVSPropertyOp9
 70
     1
102
RTVSPropertyOp10
 70
     1
102
RTVSPropertyOp11
 70
     1
102
RTVSPropertyOp12
 70
     1
102
RTVSPropertyOp13
 70
     1
102
RTVSPropertyOp14
 70
     1
102
RTVSPropertyOp15
 70
     1
102
RTVSPropertyOp16
 70
     1
102
RTVSPropertyOp17
 70
     1
102
RTVSPropertyOp18
 70
     1
102
RTVSPropertyOp19
 70
     1
102
RTVSPropertyOp20
 70
     1
102
RTVSPropertyOp21
 70
     1
102
RTVSPropertyOp22
 70
     1
102
RTVSPropertyOp23
 70
     1
102
RTVSPropertyOp24
 70
     1
102
RTVSPropertyOp25
 70
     1
102
RTVSPropertyOp26
 70
     1
102
RTVSPropertyOp27
 70
     1
102
RTVSPropertyOp28
 70
     1
102
RTVSPropertyOp29
 70
     1
102
RTVSPropertyOp30
 70
     1
102
RTVSPropertyOp31
 70
     1
102
RTVSPropertyOp32
 70
     1
  0
XRECORD
  5
59C
102
{ACAD_REACTORS
330
59B
102
}
330
59B
100
AcDbXrecord
280
     1
102
RTVSPropertyOp0
 70
     1
102
RTVSPropertyOp1
 70
     1
102
RTVSPropertyOp2
 70
     1
102
RTVSPropertyOp3
 70
     1
102
RTVSPropertyOp4
 70
     1
102
RTVSPropertyOp5
 70
     1
102
RTVSPropertyOp6
 70
     1
102
RTVSPropertyOp7
 70
     1
102
RTVSPropertyOp8
 70
     1
102
RTVSPropertyOp9
 70
     1
102
RTVSPropertyOp10
 70
     1
102
RTVSPropertyOp11
 70
     1
102
RTVSPropertyOp12
 70
     1
102
RTVSPropertyOp13
 70
     1
102
RTVSPropertyOp14
 70
     1
102
RTVSPropertyOp15
 70
     1
102
RTVSPropertyOp16
 70
     1
102
RTVSPropertyOp17
 70
     1
102
RTVSPropertyOp18
 70
     1
102
RTVSPropertyOp19
 70
     1
102
RTVSPropertyOp20
 70
     1
102
RTVSPropertyOp21
 70
     1
102
RTVSPropertyOp22
 70
     1
102
RTVSPropertyOp23
 70
     1
102
RTVSPropertyOp24
 70
     1
102
RTVSPropertyOp25
 70
     1
102
RTVSPropertyOp26
 70
     1
102
RTVSPropertyOp27
 70
     1
102
RTVSPropertyOp28
 70
     1
102
RTVSPropertyOp29
 70
     1
102
RTVSPropertyOp30
 70
     1
102
RTVSPropertyOp31
 70
     1
102
RTVSPropertyOp32
 70
     1
  0
XRECORD
  5
59E
102
{ACAD_REACTORS
330
59D
102
}
330
59D
100
AcDbXrecord
280
     1
102
RTVSPropertyOp0
 70
     1
102
RTVSPropertyOp1
 70
     1
102
RTVSPropertyOp2
 70
     1
102
RTVSPropertyOp3
 70
     1
102
RTVSPropertyOp4
 70
     1
102
RTVSPropertyOp5
 70
     1
102
RTVSPropertyOp6
 70
     1
102
RTVSPropertyOp7
 70
     1
102
RTVSPropertyOp8
 70
     1
102
RTVSPropertyOp9
 70
     1
102
RTVSPropertyOp10
 70
     1
102
RTVSPropertyOp11
 70
     1
102
RTVSPropertyOp12
 70
     1
102
RTVSPropertyOp13
 70
     1
102
RTVSPropertyOp14
 70
     1
102
RTVSPropertyOp15
 70
     1
102
RTVSPropertyOp16
 70
     1
102
RTVSPropertyOp17
 70
     1
102
RTVSPropertyOp18
 70
     1
102
RTVSPropertyOp19
 70
     1
102
RTVSPropertyOp20
 70
     1
102
RTVSPropertyOp21
 70
     1
102
RTVSPropertyOp22
 70
     1
102
RTVSPropertyOp23
 70
     1
102
RTVSPropertyOp24
 70
     1
102
RTVSPropertyOp25
 70
     1
102
RTVSPropertyOp26
 70
     1
102
RTVSPropertyOp27
 70
     1
102
RTVSPropertyOp28
 70
     1
102
RTVSPropertyOp29
 70
     1
102
RTVSPropertyOp30
 70
     1
102
RTVSPropertyOp31
 70
     1
102
RTVSPropertyOp32
 70
     1
  0
XRECORD
  5
5A0
102
{ACAD_REACTORS
330
59F
102
}
330
59F
100
AcDbXrecord
280
     1
102
RTVSPropertyOp0
 70
     1
102
RTVSPropertyOp1
 70
     1
102
RTVSPropertyOp2
 70
     1
102
RTVSPropertyOp3
 70
     1
102
RTVSPropertyOp4
 70
     1
102
RTVSPropertyOp5
 70
     1
102
RTVSPropertyOp6
 70
     1
102
RTVSPropertyOp7
 70
     1
102
RTVSPropertyOp8
 70
     1
102
RTVSPropertyOp9
 70
     1
102
RTVSPropertyOp10
 70
     1
102
RTVSPropertyOp11
 70
     1
102
RTVSPropertyOp12
 70
     1
102
RTVSPropertyOp13
 70
     1
102
RTVSPropertyOp14
 70
     1
102
RTVSPropertyOp15
 70
     1
102
RTVSPropertyOp16
 70
     1
102
RTVSPropertyOp17
 70
     1
102
RTVSPropertyOp18
 70
     1
102
RTVSPropertyOp19
 70
     1
102
RTVSPropertyOp20
 70
     1
102
RTVSPropertyOp21
 70
     1
102
RTVSPropertyOp22
 70
     1
102
RTVSPropertyOp23
 70
     1
102
RTVSPropertyOp24
 70
     1
102
RTVSPropertyOp25
 70
     1
102
RTVSPropertyOp26
 70
     1
102
RTVSPropertyOp27
 70
     1
102
RTVSPropertyOp28
 70
     1
102
RTVSPropertyOp29
 70
     1
102
RTVSPropertyOp30
 70
     1
102
RTVSPropertyOp31
 70
     1
102
RTVSPropertyOp32
 70
     1
  0
XRECORD
  5
5A2
102
{ACAD_REACTORS
330
5A1
102
}
330
5A1
100
AcDbXrecord
280
     1
102
RTVSPropertyOp0
 70
     1
102
RTVSPropertyOp1
 70
     1
102
RTVSPropertyOp2
 70
     1
102
RTVSPropertyOp3
 70
     1
102
RTVSPropertyOp4
 70
     1
102
RTVSPropertyOp5
 70
     1
102
RTVSPropertyOp6
 70
     1
102
RTVSPropertyOp7
 70
     1
102
RTVSPropertyOp8
 70
     1
102
RTVSPropertyOp9
 70
     1
102
RTVSPropertyOp10
 70
     1
102
RTVSPropertyOp11
 70
     1
102
RTVSPropertyOp12
 70
     1
102
RTVSPropertyOp13
 70
     1
102
RTVSPropertyOp14
 70
     1
102
RTVSPropertyOp15
 70
     1
102
RTVSPropertyOp16
 70
     1
102
RTVSPropertyOp17
 70
     1
102
RTVSPropertyOp18
 70
     1
102
RTVSPropertyOp19
 70
     1
102
RTVSPropertyOp20
 70
     1
102
RTVSPropertyOp21
 70
     1
102
RTVSPropertyOp22
 70
     1
102
RTVSPropertyOp23
 70
     1
102
RTVSPropertyOp24
 70
     1
102
RTVSPropertyOp25
 70
     1
102
RTVSPropertyOp26
 70
     1
102
RTVSPropertyOp27
 70
     1
102
RTVSPropertyOp28
 70
     1
102
RTVSPropertyOp29
 70
     1
102
RTVSPropertyOp30
 70
     1
102
RTVSPropertyOp31
 70
     1
102
RTVSPropertyOp32
 70
     1
  0
XRECORD
  5
5B6
102
{ACAD_REACTORS
330
5B5
102
}
330
5B5
100
AcDbXrecord
280
     1
102
RTVSPropertyOp0
 70
     1
102
RTVSPropertyOp1
 70
     1
102
RTVSPropertyOp2
 70
     1
102
RTVSPropertyOp3
 70
     1
102
RTVSPropertyOp4
 70
     1
102
RTVSPropertyOp5
 70
     1
102
RTVSPropertyOp6
 70
     1
102
RTVSPropertyOp7
 70
     1
102
RTVSPropertyOp8
 70
     1
102
RTVSPropertyOp9
 70
     1
102
RTVSPropertyOp10
 70
     1
102
RTVSPropertyOp11
 70
     1
102
RTVSPropertyOp12
 70
     1
102
RTVSPropertyOp13
 70
     1
102
RTVSPropertyOp14
 70
     1
102
RTVSPropertyOp15
 70
     1
102
RTVSPropertyOp16
 70
     1
102
RTVSPropertyOp17
 70
     1
102
RTVSPropertyOp18
 70
     1
102
RTVSPropertyOp19
 70
     1
102
RTVSPropertyOp20
 70
     1
102
RTVSPropertyOp21
 70
     1
102
RTVSPropertyOp22
 70
     1
102
RTVSPropertyOp23
 70
     1
102
RTVSPropertyOp24
 70
     1
102
RTVSPropertyOp25
 70
     1
102
RTVSPropertyOp26
 70
     1
102
RTVSPropertyOp27
 70
     1
102
RTVSPropertyOp28
 70
     1
102
RTVSPropertyOp29
 70
     1
102
RTVSPropertyOp30
 70
     1
102
RTVSPropertyOp31
 70
     1
102
RTVSPropertyOp32
 70
     1
  0
XRECORD
  5
5AC
102
{ACAD_REACTORS
330
5AB
102
}
330
5AB
100
AcDbXrecord
280
     1
102
RTVSPropertyOp0
 70
     1
102
RTVSPropertyOp1
 70
     1
102
RTVSPropertyOp2
 70
     1
102
RTVSPropertyOp3
 70
     1
102
RTVSPropertyOp4
 70
     1
102
RTVSPropertyOp5
 70
     1
102
RTVSPropertyOp6
 70
     1
102
RTVSPropertyOp7
 70
     1
102
RTVSPropertyOp8
 70
     1
102
RTVSPropertyOp9
 70
     1
102
RTVSPropertyOp10
 70
     1
102
RTVSPropertyOp11
 70
     1
102
RTVSPropertyOp12
 70
     1
102
RTVSPropertyOp13
 70
     1
102
RTVSPropertyOp14
 70
     1
102
RTVSPropertyOp15
 70
     1
102
RTVSPropertyOp16
 70
     1
102
RTVSPropertyOp17
 70
     1
102
RTVSPropertyOp18
 70
     1
102
RTVSPropertyOp19
 70
     1
102
RTVSPropertyOp20
 70
     1
102
RTVSPropertyOp21
 70
     1
102
RTVSPropertyOp22
 70
     1
102
RTVSPropertyOp23
 70
     1
102
RTVSPropertyOp24
 70
     1
102
RTVSPropertyOp25
 70
     1
102
RTVSPropertyOp26
 70
     1
102
RTVSPropertyOp27
 70
     1
102
RTVSPropertyOp28
 70
     1
102
RTVSPropertyOp29
 70
     1
102
RTVSPropertyOp30
 70
     1
102
RTVSPropertyOp31
 70
     1
102
RTVSPropertyOp32
 70
     1
  0
XRECORD
  5
5B4
102
{ACAD_REACTORS
330
5B3
102
}
330
5B3
100
AcDbXrecord
280
     1
102
RTVSPropertyOp0
 70
     1
102
RTVSPropertyOp1
 70
     1
102
RTVSPropertyOp2
 70
     1
102
RTVSPropertyOp3
 70
     1
102
RTVSPropertyOp4
 70
     1
102
RTVSPropertyOp5
 70
     1
102
RTVSPropertyOp6
 70
     1
102
RTVSPropertyOp7
 70
     1
102
RTVSPropertyOp8
 70
     1
102
RTVSPropertyOp9
 70
     1
102
RTVSPropertyOp10
 70
     1
102
RTVSPropertyOp11
 70
     1
102
RTVSPropertyOp12
 70
     1
102
RTVSPropertyOp13
 70
     1
102
RTVSPropertyOp14
 70
     1
102
RTVSPropertyOp15
 70
     1
102
RTVSPropertyOp16
 70
     1
102
RTVSPropertyOp17
 70
     1
102
RTVSPropertyOp18
 70
     1
102
RTVSPropertyOp19
 70
     1
102
RTVSPropertyOp20
 70
     1
102
RTVSPropertyOp21
 70
     1
102
RTVSPropertyOp22
 70
     1
102
RTVSPropertyOp23
 70
     1
102
RTVSPropertyOp24
 70
     1
102
RTVSPropertyOp25
 70
     1
102
RTVSPropertyOp26
 70
     1
102
RTVSPropertyOp27
 70
     1
102
RTVSPropertyOp28
 70
     1
102
RTVSPropertyOp29
 70
     1
102
RTVSPropertyOp30
 70
     1
102
RTVSPropertyOp31
 70
     1
102
RTVSPropertyOp32
 70
     1
  0
ENDSEC
  0
EOF
